Jump to content

Photo
Artwork Request

2016-04-16 - Rasputin Store, Berkeley, California, USA (Spencermet-TripleM BD25)



  • Please log in to reply
5 replies to this topic

#1 Nono666

Nono666
  • Members
  • 26 posts

Posted 15 June 2018 - 08:01 AM

Hello All !

 

Would it be possible to make an alternative artwork of the existing one.

 

This version is synchronized by TripleM with audio from FLAC HTSD bonus disc ; and authored by SpencerMet

 

.

 

Setlist :

01. Helpless
02. Hit the Lights
03. The Four Horsemen
04. Ride the Lightning
05. Fade to Black
06. Jump in the Fire
07. For Whom the Bell Tolls
08. Creeping Death
09. Metal Militia

 

 

 

Properties :

General
ID                             : 0 (0x0)
Complete name                  : E:\= MUSIQUE =\== Blu-rays en attente ==\Metallica - 2016-04-16 - Rasputin Store, Berkeley, California, USA (Spencermet-TripleM BD25)\BDMV\STREAM\00000.m2ts
Format                         : BDAV
Format/Info                    : Blu-ray Video
File size                      : 6.72 GiB
Duration                       : 54mn 32s
Overall bit rate mode          : Constant
Overall bit rate               : 17.6 Mbps
Maximum Overall bit rate       : 48.0 Mbps

Video
ID                             : 4113 (0x1011)
Menu ID                        : 1 (0x1)
Format                         : AVC
Format/Info                    : Advanced Video Codec
Format profile                 : Main@L4.0
Format settings, CABAC         : Yes
Format settings, ReFrames      : 2 frames
Format settings, GOP           : M=3, N=15
Codec ID                       : 27
Duration                       : 54mn 32s
Bit rate mode                  : Constant
Bit rate                       : 15.0 Mbps
Width                          : 1 280 pixels
Height                         : 720 pixels
Display aspect ratio           : 16:9
Frame rate                     : 59.940 fps
Standard                       : NTSC
Color space                    : YUV
Chroma subsampling             : 4:2:0
Bit depth                      : 8 bits
Scan type                      : Progressive
Bits/(Pixel*Frame)             : 0.272
Stream size                    : 5.87 GiB (87%)
Color primaries                : BT.709-5, BT.1361, IEC 61966-2-4, SMPTE RP177
Transfer characteristics       : BT.709-5, BT.1361
Matrix coefficients            : BT.709-5, BT.1361, IEC 61966-2-4 709, SMPTE RP177

Audio
ID                             : 4352 (0x1100)
Menu ID                        : 1 (0x1)
Format                         : PCM
Format settings, Endianness    : Big
Format settings, Sign          : Signed
Muxing mode                    : Blu-ray
Codec ID                       : 128
Duration                       : 54mn 32s
Bit rate mode                  : Constant
Bit rate                       : 1 536 Kbps
Channel(s)                     : 2 channels
Channel positions              : Front: L R
Sampling rate                  : 48.0 KHz
Bit depth                      : 16 bits
Stream size                    : 599 MiB (9%)

 

Thanks in advance !

 

Cheers,

 

PagArn
 

Attached Files


Edited by Nono666, 15 June 2018 - 08:02 AM.


#2 Nono666

Nono666
  • Members
  • 26 posts

Posted 15 June 2018 - 08:03 AM

Additional images (audio source used for synch.)

Attached Files



#3 zarko

zarko
  • Cover Artists
  • 258 posts
  • Gender:Male
  • Location:Greece

Posted 15 June 2018 - 11:00 AM

I'll make it



#4 Nono666

Nono666
  • Members
  • 26 posts

Posted 15 June 2018 - 11:14 AM

This would be great, thanks a lot !!



#5 zarko

zarko
  • Cover Artists
  • 258 posts
  • Gender:Male
  • Location:Greece

Posted 16 June 2018 - 06:17 PM

Done, enjoy!

 

http://www.metcovera...e.php?pid=22280



#6 Nono666

Nono666
  • Members
  • 26 posts

Posted 16 June 2018 - 07:56 PM

Really nice, thanks a lot !

By the way, if you want to get this bootleg, just let me know...







0 user(s) are reading this topic

0 members, 0 guests, 0 anonymous users