Jump to content

Photo
Artwork Request

2012-06-02 - Rock Am Ring, Nürburgring, Germany (Thumraider BD25)



  • Please log in to reply
2 replies to this topic

#1 Nono666

Nono666
  • Members
  • 26 posts

Posted 22 June 2018 - 08:57 AM

Hello All, hello Zarko.

 

Could you please make an alternative version of the existing artwork concerning this Metallica gig ?

 

2012-06-02 - Rock Am Ring, Nürburgring, Germany

 

Setlist :

 

Intro / The Ecstasy Of Gold
Hit the Lights
Master of Puppets
Ride the Lightning
For Whom the Bell Tolls
Hell and Back
Black Album Intro
The Struggle Within
My Friend of Misery
The God That Failed
Of Wolf & Man
Nothing Else Matters
Through the Never
Don't Tread On Me
Wherever I May Roam
The Unforgiven
Holier Than Thou
Sad But True

Bass Solo
Enter Sandman
Blackened
One
Seek & Destroy
 

 

General
ID                             : 1 (0x1)
Complete name                  : Metallica - 2012-06-02 - Rock Am Ring, Nürburgring, Germany (Thumraider BD25)\BDMV\STREAM\00000.m2ts
Format                         : BDAV
Format/Info                    : Blu-ray Video
File size                      : 20.4 GiB
Duration                       : 2h 9mn
Overall bit rate mode          : Variable
Overall bit rate               : 22.6 Mbps
Maximum Overall bit rate       : 39.6 Mbps

Video
ID                             : 4113 (0x1011)
Menu ID                        : 1 (0x1)
Format                         : MPEG Video
Format version                 : Version 2
Format profile                 : Main@High
Format settings, BVOP          : Yes
Format settings, Matrix        : Custom
Format settings, GOP           : M=3, N=15
Codec ID                       : 2
Duration                       : 2h 9mn
Bit rate mode                  : Variable
Bit rate                       : 18.7 Mbps
Maximum bit rate               : 35.0 Mbps
Width                          : 1 280 pixels
Height                         : 720 pixels
Display aspect ratio           : 16:9
Frame rate                     : 50.000 fps
Standard                       : Component
Color space                    : YUV
Chroma subsampling             : 4:2:0
Bit depth                      : 8 bits
Scan type                      : Progressive
Compression mode               : Lossy
Bits/(Pixel*Frame)             : 0.405
Stream size                    : 16.8 GiB (82%)
Color primaries                : BT.709
Transfer characteristics       : BT.709
Matrix coefficients            : BT.709

Audio #1
ID                             : 4352 (0x1100)
Menu ID                        : 1 (0x1)
Format                         : PCM
Format settings, Endianness    : Big
Format settings, Sign          : Signed
Muxing mode                    : Blu-ray
Codec ID                       : 128
Duration                       : 2h 9mn
Bit rate mode                  : Constant
Bit rate                       : 1 536 Kbps
Channel(s)                     : 2 channels
Channel positions              : Front: L R
Sampling rate                  : 48.0 KHz
Bit depth                      : 16 bits
Stream size                    : 1.38 GiB (7%)

Audio #2
ID                             : 4353 (0x1101)
Menu ID                        : 1 (0x1)
Format                         : PCM
Format settings, Endianness    : Big
Format settings, Sign          : Signed
Muxing mode                    : Blu-ray
Codec ID                       : 128
Duration                       : 2h 9mn
Bit rate mode                  : Constant
Bit rate                       : 1 536 Kbps
Channel(s)                     : 2 channels
Channel positions              : Front: L R
Sampling rate                  : 48.0 KHz
Bit depth                      : 16 bits
Stream size                    : 1.38 GiB (7%)

 

Lineage : recorded from German HDTVs (SWR HD and EinsPlus HD - recent re-broadcasts)

Audio : TV audio + LiveMet audio

Captured and authored by Thumraider

 

 

@Zarko : same reward as the last time possible this time too if interested...

 

Thanks in advance, have a nice day !!

 

Arnaud aka PagArn

 



#2 zarko

zarko
  • Cover Artists
  • 258 posts
  • Gender:Male
  • Location:Greece

Posted 24 June 2018 - 10:28 AM

Here it is:

http://www.metcovera...e.php?pid=22284



#3 Nono666

Nono666
  • Members
  • 26 posts

Posted 24 June 2018 - 12:04 PM

Thanks a bunch !







0 user(s) are reading this topic

0 members, 0 guests, 0 anonymous users