Jump to content

Photo
Artwork Request

2008.xx.xx Reading Festival & More



  • Please log in to reply
No replies to this topic

#1 Nono666

Nono666
  • Members
  • 13 posts

Posted 04 July 2017 - 09:06 AM

Hello All.

 

Could someone make a nice artwork for this DVD :

 

(link : http://www.metjitf.c...hp?f=79&t=17483)

 

Metallica - Reading Festival 2008 & More
DVB-T Edition

Hauppauge Nova DVB-T Card -> MyTheatre (Capture) -> ProjectX (Demux) -> Cuttermaran (Edit) -> DVD-Lab (Author)

Everything on this disc is a direct dvb-t capture (no re-encoding) , these captures are previously un-circulated

Tracklist

Reading 2008

BBCi
For Whom The Bell Tolls
Ride The Lightning
Welcome Home (Sanitarium)
Nothing Else Matters
One
Enter Sandman

BBC Three
Master Of Puppets
Seek & Destroy
Nothing Else Matters
Enter Sandman

BBC 2
Seek & Destroy

Culture Show BBC2 5th August 2008
Culture Show Special BBC2 30th August 2008

Later... With Jools Holland Live 16th August 2008

The Day That Never Comes

Later... With Jools Holland 19th August 2008

Cyanide
Lars Interview
Enter Sandman

Kerrang Awards 2008 Speeches & Interview
One (Music Video) - Slash's Top 30 Guitar Anthems

 

 

Upped by Px2017 @MetJITF

 

Additional info :

General
Complete name                  : Metallica - 2008-xx-xx - Reading Festival 2008 & More\VIDEO_TS\VTS_01_1.VOB
Format                         : MPEG-PS
File size                      : 937 MiB
Duration                       : 40mn 13s
Overall bit rate mode          : Variable
Overall bit rate               : 3 256 Kbps

Video
ID                             : 224 (0xE0)
Format                         : MPEG Video
Format version                 : Version 2
Format profile                 : Main@Main
Format settings, BVOP          : Yes
Format settings, Matrix        : Custom
Format settings, GOP           : M=3, N=12
Duration                       : 40mn 13s
Bit rate mode                  : Variable
Bit rate                       : 2 999 Kbps
Width                          : 544 pixels
Height                         : 576 pixels
Display aspect ratio           : 16:9
Frame rate                     : 25.000 fps
Color space                    : YUV
Chroma subsampling             : 4:2:0
Bit depth                      : 8 bits
Scan type                      : Interlaced
Scan order                     : Top Field First
Compression mode               : Lossy
Bits/(Pixel*Frame)             : 0.383
Stream size                    : 863 MiB (92%)

Audio
ID                             : 192 (0xC0)
Format                         : MPEG Audio
Format version                 : Version 1
Format profile                 : Layer 2
Mode                           : Joint stereo
Mode extension                 : Intensity Stereo + MS Stereo
Duration                       : 40mn 13s
Bit rate mode                  : Constant
Bit rate                       : 192 Kbps
Channel(s)                     : 2 channels
Sampling rate                  : 48.0 KHz
Compression mode               : Lossy
Stream size                    : 55.2 MiB (6%)

Menu

 

Thanks in advance !!







0 user(s) are reading this topic

0 members, 0 guests, 0 anonymous users