Jump to content

Photo
Done

2013-03-01 - Melbourne, Australia (Skarhead666-WVMonster BD50)



  • Please log in to reply
3 replies to this topic

#1 Nono666

Nono666
  • Members
  • 34 posts

Posted 04 February 2019 - 02:01 PM

Hi All !

 

Could someone (Zarko ?) make an artwork for the following blu-ray ?

 

2013.03.01 - Melbourne, Australia [Skarhead666 / WVMonster][Bluray]

Date: March 1, 2013
Venue: Flemington Racecourse
Location: Melbourne, Australia
Tour name: Soundwave Festival

Track listing:

The Ecstasy Of Gold
Hit the Lights
Master of Puppets
The Four Horsemen
Harvester of Sorrow
Kirk Solo 1
Welcome Home (Sanitarium)
Leper Messiah
My Friend of Misery
Sad But True
Bass Solo
Fade to Black
All Nightmare Long
One
For Whom the Bell Tolls
Blackened
Kirk Solo 2
Nothing Else Matters
Enter Sandman
Creeping Death
Damage, Inc.
Seek & Destroy

 

More details and screenshots here : https://www.sjmike.c...hp?details=1769

 

Link for download : http://www.metjitf.c...hp?f=79&t=19107

 

 

General
ID                             : 0 (0x0)
Complete name                  : E:\= MUSIQUE =\== Blu-rays ==\En attente\Metallica - 2013-03-01 - Melbourne, Australia (Skarhead666-WVMonster BD50)\BDMV\STREAM\00004.m2ts
Format                         : BDAV
Format/Info                    : Blu-ray Video
File size                      : 24.5 GiB
Duration                       : 2h 12mn
Overall bit rate mode          : Variable
Overall bit rate               : 26.5 Mbps
Maximum Overall bit rate       : 48.0 Mbps

Video
ID                             : 4113 (0x1011)
Menu ID                        : 1 (0x1)
Format                         : MPEG Video
Format version                 : Version 2
Format profile                 : Main@High
Format settings, BVOP          : Yes
Format settings, Matrix        : Default
Format settings, GOP           : M=3, N=12
Codec ID                       : 2
Duration                       : 2h 12mn
Bit rate mode                  : Variable
Bit rate                       : 23.5 Mbps
Maximum bit rate               : 27.0 Mbps
Width                          : 1 920 pixels
Height                         : 1 080 pixels
Display aspect ratio           : 16:9
Frame rate                     : 25.000 fps
Color space                    : YUV
Chroma subsampling             : 4:2:0
Bit depth                      : 8 bits
Scan type                      : Interlaced
Scan order                     : Top Field First
Compression mode               : Lossy
Bits/(Pixel*Frame)             : 0.454
Stream size                    : 21.7 GiB (89%)

Audio #1
ID                             : 4352 (0x1100)
Menu ID                        : 1 (0x1)
Format                         : PCM
Format settings, Endianness    : Big
Format settings, Sign          : Signed
Muxing mode                    : Blu-ray
Codec ID                       : 128
Duration                       : 2h 12mn
Bit rate mode                  : Constant
Bit rate                       : 1 536 Kbps
Channel(s)                     : 2 channels
Channel positions              : Front: L R
Sampling rate                  : 48.0 KHz
Bit depth                      : 16 bits
Delay relative to video        : -80ms
Stream size                    : 1.42 GiB (6%)

Audio #2
ID                             : 4353 (0x1101)
Menu ID                        : 1 (0x1)
Format                         : AC-3
Format/Info                    : Audio Coding 3
Mode extension                 : CM (complete main)
Codec ID                       : 129
Duration                       : 2h 12mn
Bit rate mode                  : Constant
Bit rate                       : 192 Kbps
Channel(s)                     : 2 channels
Channel positions              : Front: L R
Sampling rate                  : 48.0 KHz
Bit depth                      : 16 bits
Compression mode               : Lossy
Delay relative to video        : -80ms
Stream size                    : 182 MiB (1%)

Audio #3
ID                             : 4354 (0x1102)
Menu ID                        : 1 (0x1)
Format                         : AC-3
Format/Info                    : Audio Coding 3
Mode extension                 : CM (complete main)
Codec ID                       : 129
Duration                       : 2h 12mn
Bit rate mode                  : Constant
Bit rate                       : 192 Kbps
Channel(s)                     : 2 channels
Channel positions              : Front: L R
Sampling rate                  : 48.0 KHz
Bit depth                      : 16 bits
Compression mode               : Lossy
Delay relative to video        : -80ms
Stream size                    : 182 MiB (1%)

 

Please let me know if you need something more.

 

Thanks in advance, cheers,

 

Nono / Pagarn



#2 zarko

zarko
  • Cover Artists
  • 249 posts

Posted 13 February 2019 - 08:43 PM

Here it is, enjoy!

http://www.metcovera...e.php?pid=22405

http://www.metcovera...e.php?pid=22403



#3 Nono666

Nono666
  • Members
  • 34 posts

Posted 14 February 2019 - 05:08 PM

Great work, thanks a lot Yannis !



#4 Nono666

Nono666
  • Members
  • 34 posts

Posted 15 February 2019 - 08:17 AM

Zarko,

Are Sharhead666 and SS666 the same person ?






0 user(s) are reading this topic

0 members, 0 guests, 0 anonymous users