Jump to content

Welcome to our forums!

Sign In or Register to gain full access to our forums. By registering with us, you'll be able to discuss, share and private message with other members of our community.

Close
Photo
Done

2019-08-23 - Munich, Germany (Bellower-Thumraider BD25)



  • Please log in to reply

#1

Posted 29 December 2019 - 10:37 AM

Nono666
  • Members
  • 84 posts
  • Favorite Album:Ride the Lightning

Hello Zarko !

 

Could you please create an alternative version of your already existing artwork for this version ?

 

Metallica - 2019-08-23 - Munich, Germany (Bellower-Thumraider BD25)

 

Video captured by Bellower from Nugs.net

One audio channel (source audio)

 

Bonus tracks : see enclosed screenshot.

 

General
ID                             : 1 (0x1)
Complete name                  : Metallica - 2019-08-23 - Munich, Germany (Bellower-Thumraider BD25)\BDMV\STREAM\00000.m2ts
Format                         : BDAV
Format/Info                    : Blu-ray Video
File size                      : 14.5 GiB
Duration                       : 2 h 44 min
Overall bit rate mode          : Variable
Overall bit rate               : 12.6 Mb/s
Maximum Overall bit rate       : 37.8 Mb/s

Video
ID                             : 4113 (0x1011)
Menu ID                        : 1 (0x1)
Format                         : MPEG Video
Format version                 : Version 2
Format profile                 : Main@High
Format settings, BVOP          : Yes
Format settings, Matrix        : Custom
Format settings, GOP           : Variable
Format settings, picture struc : Frame
Codec ID                       : 2
Duration                       : 2 h 44 min
Bit rate mode                  : Variable
Bit rate                       : 10.6 Mb/s
Maximum bit rate               : 35.0 Mb/s
Width                          : 1 920 pixels
Height                         : 1 080 pixels
Display aspect ratio           : 16:9
Frame rate                     : 29.970 (30000/1001) FPS
Standard                       : Component
Color space                    : YUV
Chroma subsampling             : 4:2:0
Bit depth                      : 8 bits
Scan type                      : Interlaced
Scan order                     : Top Field First
Compression mode               : Lossy
Bits/(Pixel*Frame)             : 0.170
Time code of first frame       : 00:00:00:00
Time code source               : Group of pictures header
Stream size                    : 12.1 GiB (84%)
Writing library                : TMPGEnc Authoring Works 5 Version. 5.2.2.61
Color primaries                : BT.709
Transfer characteristics       : BT.709
Matrix coefficients            : BT.709

Audio
ID                             : 4352 (0x1100)
Menu ID                        : 1 (0x1)
Format                         : PCM
Format settings, Endianness    : Big
Format settings, Sign          : Signed
Muxing mode                    : Blu-ray
Codec ID                       : 128
Duration                       : 2 h 44 min
Bit rate mode                  : Constant
Bit rate                       : 1 536 kb/s
Channel(s)                     : 2 channels
Channel positions              : Front: L R
Sampling rate                  : 48.0 kHz
Bit depth                      : 16 bits
Stream size                    : 1.76 GiB (12%)


Thanks in advance, cheers !!

 

Attached Files



#2

Posted 30 December 2019 - 11:17 PM

zarko
  • Cover Artists
  • 310 posts
  • Favorite Album:They all kick ass!

Done, enjoy:

http://www.metcovera...e.php?pid=22810



#3

Posted 31 December 2019 - 10:59 AM

Nono666
  • Members
  • 84 posts
  • Favorite Album:Ride the Lightning

Thanks a lot for filling up my requests and have a wonderfully happy New Year !






0 user(s) are reading this topic

0 members, 0 guests, 0 anonymous users