Jump to content

Welcome to our forums!

Sign In or Register to gain full access to our forums. By registering with us, you'll be able to discuss, share and private message with other members of our community.

Close
Photo
Done

2019-08-21 - PGE Narodowy, Warsaw, Poland (Bellower-Thumraider BD25)



  • Please log in to reply

#1

Posted 01 January 2020 - 10:21 PM

Nono666
  • Members
  • 60 posts
  • Favorite Album:Ride the Lightning

Hello Zarko !

 

Could you please create an alternative version of your already existing artwork for this version ?

 

Metallica - 2019-08-21 - PGE Narodowy, Warsaw, Poland (Bellower-Thumraider BD25)

 

Video captured by Bellower from Nugs.net

One audio channel (source audio which is supposed to be LiveMet)

 

Bonus tracks : see enclosed screenshot here => http://www.filefacto...ygjv/Warsaw.rar

or here => http://www.horrormet...hp?details=2958

 

Thanks a lot by anticipation !!!

 

 

General
ID                             : 1 (0x1)
Complete name                  : Metallica - 2019-08-21 - PGE Narodowy, Warsaw, Poland (Bellower-Thumraider BD25)\BDMV\STREAM\00000.m2ts
Format                         : BDAV
Format/Info                    : Blu-ray Video
File size                      : 13.5 GiB
Duration                       : 2 h 35 min
Overall bit rate mode          : Variable
Overall bit rate               : 12.4 Mb/s
Maximum Overall bit rate       : 36.2 Mb/s

Video
ID                             : 4113 (0x1011)
Menu ID                        : 1 (0x1)
Format                         : MPEG Video
Format version                 : Version 2
Format profile                 : Main@High
Format settings, BVOP          : Yes
Format settings, Matrix        : Custom
Format settings, GOP           : Variable
Format settings, picture struc : Frame
Codec ID                       : 2
Duration                       : 2 h 35 min
Bit rate mode                  : Variable
Bit rate                       : 10.4 Mb/s
Maximum bit rate               : 33.5 Mb/s
Width                          : 1 920 pixels
Height                         : 1 080 pixels
Display aspect ratio           : 16:9
Frame rate                     : 29.970 (30000/1001) FPS
Standard                       : Component
Color space                    : YUV
Chroma subsampling             : 4:2:0
Bit depth                      : 8 bits
Scan type                      : Interlaced
Scan order                     : Top Field First
Compression mode               : Lossy
Bits/(Pixel*Frame)             : 0.167
Time code of first frame       : 00:00:00:00
Time code source               : Group of pictures header
GOP, Open/Closed               : Open
GOP, Open/Closed of first fram : Closed
Stream size                    : 11.3 GiB (84%)
Color primaries                : BT.709
Transfer characteristics       : BT.709
Matrix coefficients            : BT.709

Audio
ID                             : 4352 (0x1100)
Menu ID                        : 1 (0x1)
Format                         : PCM
Format settings, Endianness    : Big
Format settings, Sign          : Signed
Muxing mode                    : Blu-ray
Codec ID                       : 128
Duration                       : 2 h 35 min
Bit rate mode                  : Constant
Bit rate                       : 1 536 kb/s
Channel(s)                     : 2 channels
Channel positions              : Front: L R
Sampling rate                  : 48.0 kHz
Bit depth                      : 16 bits
Stream size                    : 1.67 GiB (12%)


 

 



#2

Posted 02 January 2020 - 12:19 AM

zarko
  • Cover Artists
  • 296 posts
  • Favorite Album:They all kick ass!

The cover is already done, check here:

http://www.metcovera...e.php?pid=22836



#3

Posted 02 January 2020 - 06:24 AM

Nono666
  • Members
  • 60 posts
  • Favorite Album:Ride the Lightning

Thanks !

I have to admit that I checked for the first ones I asked a couple of days ago, but not for all...






0 user(s) are reading this topic

0 members, 0 guests, 0 anonymous users