Jump to content

Welcome to our forums!

Sign In or Register to gain full access to our forums. By registering with us, you'll be able to discuss, share and private message with other members of our community.

Close
Photo
Done

2019-06-08 - Slane Castle, Meath, Ireland (Metallicafreak-Thumraider BD25)



  • Please log in to reply

#1

Posted 09 April 2020 - 08:19 AM

Nono666
  • Members
  • 84 posts
  • Favorite Album:Ride the Lightning
 
 
 
Hello MCA.
 
Could it be possible to create a blu-ray artwork for the following blu-ray ?
 
 
Metallica - 2019-06-08 - Slane Castle, Meath, Ireland (Metallicafreak-Thumraider PRO BD25)
 
Setlist :
Hardwired
The Memory Remains
Ride The Lightning
Whiskey In The Jar
The Unforgiven
Now That We Are Dead
Moth To Flame
Sad But True
Halo On Fire
Kirk & Rob's Solo
Frantic
One
Master Of Puppets
For Whom The Bell Tolls
Creeping Death
Seek & Destroy
Spit Out The Bone
Nothing Else Matters
Enter Sandman
 
Bonus (MetOnTour videos) :
Rehearsal
Tuning Room
Whiskey In The Jar
One
Seek & Destroy
Kirk & Rob's Solo
Thank You Slane Castle!
 

General
ID                             : 1 (0x1)
Complete name                  : Metallica - 2019-06-08 - Slane Castle, Meath, Ireland (Metallicafreak-Thumraider BD25)\BDMV\STREAM\00000.m2ts
Format                         : BDAV
Format/Info                    : Blu-ray Video
File size                      : 18.2 GiB
Duration                       : 3 h 8 min
Overall bit rate mode          : Variable
Overall bit rate               : 13.8 Mb/s
Maximum Overall bit rate       : 37.8 Mb/s
 
Video
ID                             : 4113 (0x1011)
Menu ID                        : 1 (0x1)
Format                         : MPEG Video
Format version                 : Version 2
Format profile                 : Main@High
Format settings, BVOP          : Yes
Format settings, Matrix        : Custom
Format settings, GOP           : M=3, N=18
Format settings, picture struc : Frame
Codec ID                       : 2
Duration                       : 3 h 8 min
Bit rate mode                  : Variable
Bit rate                       : 11.7 Mb/s
Maximum bit rate               : 35.0 Mb/s
Width                          : 1 920 pixels
Height                         : 1 080 pixels
Display aspect ratio           : 16:9
Frame rate                     : 29.970 (30000/1001) FPS
Standard                       : Component
Color space                    : YUV
Chroma subsampling             : 4:2:0
Bit depth                      : 8 bits
Scan type                      : Interlaced
Scan order                     : Top Field First
Compression mode               : Lossy
Bits/(Pixel*Frame)             : 0.189
Time code of first frame       : 00:00:00:00
Time code source               : Group of pictures header
GOP, Open/Closed               : Open
GOP, Open/Closed of first fram : Closed
Stream size                    : 15.4 GiB (85%)
Color primaries                : BT.709
Transfer characteristics       : BT.709
Matrix coefficients            : BT.709
 
Audio
ID                             : 4352 (0x1100)
Menu ID                        : 1 (0x1)
Format                         : PCM
Format settings, Endianness    : Big
Format settings, Sign          : Signed
Muxing mode                    : Blu-ray
Codec ID                       : 128
Duration                       : 3 h 8 min
Bit rate mode                  : Constant
Bit rate                       : 1 536 kb/s
Channel(s)                     : 2 channels
Channel positions              : Front: L R
Sampling rate                  : 48.0 kHz
Bit depth                      : 16 bits
Stream size                    : 2.02 GiB (11%)

 

Menus and screenshots here : http://www.filefacto...cj/Met_Thum.zip

 

 

Thanks in advance, have a nice day !

 

Pagarn



#2

Posted 14 April 2020 - 08:57 AM

zarko
  • Cover Artists
  • 310 posts
  • Favorite Album:They all kick ass!

Here it is:

http://www.metcovera...e.php?pid=22872



#3

Posted 14 April 2020 - 03:39 PM

Nono666
  • Members
  • 84 posts
  • Favorite Album:Ride the Lightning

Thanks a lot Zarko !






0 user(s) are reading this topic

0 members, 0 guests, 0 anonymous users