Jump to content

Welcome to our forums!

Sign In or Register to gain full access to our forums. By registering with us, you'll be able to discuss, share and private message with other members of our community.

Close
Photo
Done

2017-09-08 - AccorHotels Arena, Paris, France (Metallicafreak-Thumraider)



  • Please log in to reply

#1

Posted 12 April 2020 - 03:35 PM

Nono666
  • Members
  • 84 posts
  • Favorite Album:Ride the Lightning

Hi MCA !

 

Could you please create a blu-ray artwork for the following pro-shot ?

 

Metallica - 2017-09-08 - AccorHotels Arena, Paris, France (Metallicafreak-Thumraider PRO BD25)
Captured from Nugs TV by Metallicafreak, authored by Thumraider
 
Setlist :
Hardwired
Atlas, Rise !
Seek & Destroy
Leper Messiah
The Day That Never Comes
Now That We Are Dead
Dream No More
For Whom The Bell Tolls
Halo On Fire
Kirk & Rob's Solo
Last Caress
Creeping Death
Moth Into Flame
Sad But True
One
Master Of Puppets
Blackened
Nothing Else Matters
Enter Sandman
 
Bonus (MetOnTour videos) :
Tuning Room
Meet And Greet
Leper Messiah
Halo On Fire
The Day That Never Comes
 
 
General
ID                             : 1 (0x1)
Complete name                  : Metallica - 2017-09-08 - AccorHotels Arena, Paris, France (Metallicafreak-Thumraider BD25)\BDMV\STREAM\00000.m2ts
Format                         : BDAV
Format/Info                    : Blu-ray Video
File size                      : 20.5 GiB
Duration                       : 2 h 45 min
Overall bit rate mode          : Variable
Overall bit rate               : 17.7 Mb/s
Maximum Overall bit rate       : 37.8 Mb/s
 
Video
ID                             : 4113 (0x1011)
Menu ID                        : 1 (0x1)
Format                         : MPEG Video
Format version                 : Version 2
Format profile                 : Main@High
Format settings, BVOP          : Yes
Format settings, Matrix        : Custom
Format settings, GOP           : Variable
Format settings, picture struc : Frame
Codec ID                       : 2
Duration                       : 2 h 45 min
Bit rate mode                  : Variable
Bit rate                       : 15.5 Mb/s
Maximum bit rate               : 35.0 Mb/s
Width                          : 1 920 pixels
Height                         : 1 080 pixels
Display aspect ratio           : 16:9
Frame rate                     : 29.970 (30000/1001) FPS
Standard                       : Component
Color space                    : YUV
Chroma subsampling             : 4:2:0
Bit depth                      : 8 bits
Scan type                      : Interlaced
Scan order                     : Top Field First
Compression mode               : Lossy
Bits/(Pixel*Frame)             : 0.249
Time code of first frame       : 00:00:00:00
Time code source               : Group of pictures header
GOP, Open/Closed               : Open
GOP, Open/Closed of first fram : Closed
Stream size                    : 17.9 GiB (87%)
Color primaries                : BT.709
Transfer characteristics       : BT.709
Matrix coefficients            : BT.709
 
Audio
ID                             : 4352 (0x1100)
Menu ID                        : 1 (0x1)
Format                         : PCM
Format settings, Endianness    : Big
Format settings, Sign          : Signed
Muxing mode                    : Blu-ray
Codec ID                       : 128
Duration                       : 2 h 45 min
Bit rate mode                  : Constant
Bit rate                       : 1 536 kb/s
Channel(s)                     : 2 channels
Channel positions              : Front: L R
Sampling rate                  : 48.0 kHz
Bit depth                      : 16 bits
Stream size                    : 1.77 GiB (9%)
 
 

 

Thanks in advance, have a great day,

 

Arnaud / Pagarn



#2

Posted 14 April 2020 - 09:25 AM

zarko
  • Cover Artists
  • 310 posts
  • Favorite Album:They all kick ass!

Cover is done:

http://www.metcovera...e.php?pid=22874



#3

Posted 14 April 2020 - 03:38 PM

Nono666
  • Members
  • 84 posts
  • Favorite Album:Ride the Lightning

Thank you very much Zarko !



#4

Posted 20 April 2020 - 03:41 PM

Nono666
  • Members
  • 84 posts
  • Favorite Album:Ride the Lightning

Yannis,

The date on the back is wrong (you wrote Sept 9th instead of Sept 8th).

Could you please fix it ?



#5

Posted 20 April 2020 - 08:38 PM

zarko
  • Cover Artists
  • 310 posts
  • Favorite Album:They all kick ass!

Here is the new cover:

http://www.metcovera...e.php?pid=23033



#6

Posted 20 April 2020 - 09:16 PM

Nono666
  • Members
  • 84 posts
  • Favorite Album:Ride the Lightning

Perfect, thanks !






0 user(s) are reading this topic

0 members, 0 guests, 0 anonymous users