Jump to content

Welcome to our forums!

Sign In or Register to gain full access to our forums. By registering with us, you'll be able to discuss, share and private message with other members of our community.

Close
Photo
Done

2008-09-12 - O2 World, Berlin, Germany (Hinior1-Thumraider BD25)



  • Please log in to reply

#1

Posted 12 April 2020 - 03:39 PM

Nono666
  • Members
  • 84 posts
  • Favorite Album:Ride the Lightning

Hi Zarko.

 

Is it possible to make an alternative version of your artwork concerning this blu-ray (Hinior1 version), for the version authored by Thumraider ?

 

2 audio : LM audio + 5.1 cam audio

 

Same setlist, see characteristics below :

 

General
ID                             : 1 (0x1)
Complete name                  : Metallica - 2008-09-12 - O2 World, Berlin, Germany (Hinior1-Thumraider BD25)\BDMV\STREAM\00005.m2ts
Format                         : BDAV
Format/Info                    : Blu-ray Video
File size                      : 11.4 GiB
Duration                       : 57 min 2 s
Overall bit rate mode          : Variable
Overall bit rate               : 28.5 Mb/s
Maximum Overall bit rate       : 35.9 Mb/s
 
Video
ID                             : 4113 (0x1011)
Menu ID                        : 1 (0x1)
Format                         : MPEG Video
Format version                 : Version 2
Format profile                 : Main@High
Format settings, BVOP          : Yes
Format settings, Matrix        : Custom
Format settings, GOP           : Variable
Format settings, picture struc : Frame
Codec ID                       : 2
Duration                       : 57 min 2 s
Bit rate mode                  : Variable
Bit rate                       : 25.4 Mb/s
Maximum bit rate               : 30.0 Mb/s
Width                          : 1 440 pixels
Height                         : 1 080 pixels
Display aspect ratio           : 16:9
Frame rate                     : 25.000 FPS
Standard                       : Component
Color space                    : YUV
Chroma subsampling             : 4:2:0
Bit depth                      : 8 bits
Scan type                      : Interlaced
Scan order                     : Top Field First
Compression mode               : Lossy
Bits/(Pixel*Frame)             : 0.653
Time code of first frame       : 00:00:00:00
Time code source               : Group of pictures header
GOP, Open/Closed               : Open
GOP, Open/Closed of first fram : Closed
Stream size                    : 10.1 GiB (89%)
Writing library                : TMPGEnc Authoring Works 4 Version. 4.0.11.39
Color primaries                : BT.709
Transfer characteristics       : BT.709
Matrix coefficients            : BT.709
 
Audio #1
ID                             : 4352 (0x1100)
Menu ID                        : 1 (0x1)
Format                         : PCM
Format settings, Endianness    : Big
Format settings, Sign          : Signed
Muxing mode                    : Blu-ray
Codec ID                       : 128
Duration                       : 57 min 1 s
Bit rate mode                  : Constant
Bit rate                       : 1 536 kb/s
Channel(s)                     : 2 channels
Channel positions              : Front: L R
Sampling rate                  : 48.0 kHz
Bit depth                      : 16 bits
Stream size                    : 627 MiB (5%)
 
Audio #2
ID                             : 4353 (0x1101)
Menu ID                        : 1 (0x1)
Format                         : AC-3
Format/Info                    : Audio Coding 3
Format settings, Endianness    : Big
Codec ID                       : 129
Duration                       : 57 min 2 s
Bit rate mode                  : Constant
Bit rate                       : 448 kb/s
Channel(s)                     : 6 channels
Channel positions              : Front: L C R, Side: L R, LFE
Sampling rate                  : 48.0 kHz
Frame rate                     : 31.250 FPS (1536 SPF)
Bit depth                      : 16 bits
Compression mode               : Lossy
Stream size                    : 183 MiB (2%)
Service kind                   : Complete Main
 
 
Thanks in advance, have a nice Easter weekend !
 
Arnaud / Pagarn
 


#2

Posted 14 April 2020 - 09:31 AM

zarko
  • Cover Artists
  • 310 posts
  • Favorite Album:They all kick ass!

Hi,

this is the cover I made for this version:

http://www.metcovera...e.php?pid=20841

 

Why create a new one, what's the difference?



#3

Posted 14 April 2020 - 03:37 PM

Nono666
  • Members
  • 84 posts
  • Favorite Album:Ride the Lightning

Mine is authored by Thumraider.

I can use the current one, no problem.






0 user(s) are reading this topic

0 members, 0 guests, 0 anonymous users