Jump to content

Welcome to our forums!

Sign In or Register to gain full access to our forums. By registering with us, you'll be able to discuss, share and private message with other members of our community.

Close
Photo
Done

2015-08-27 - Olympijskiy Stadium, Moscow, Russia (Vortex AUD BD25)



  • Please log in to reply

#1

Posted 20 April 2020 - 02:55 PM

Nono666
  • Members
  • 84 posts
  • Favorite Album:Ride the Lightning

Hello MCA.

 

Is it possible to create an artwork for this blu-ray filmed and authored by Vortex.

 

Metallica - 2015-08-27 - Olympijskiy Stadium, Moscow, Russia (Vortex AUD BD25)

 

01. The Ecstasy Of Gold
02. Fuel
03. For Whom The Bell Tolls
04. Battery
05. King Nothing
06. Ride The Lightning
07. The Unforgiven
08. Lords Of Summer
09. Cyanide
10. Sad But True
11. Welcome Home (Sanitarium)
12. The Frayed End Of Sanity
13. One
14. Master Of Puppets
15. Fade To Black
16. Seek & Destroy
17. Whiskey In The Jar
18. Nothing Else Matters
19. Enter Sandman
 
 
General
ID                             : 1 (0x1)
Complete name                  : Metallica - 2015-08-27 - Moscow, Russia (Vortex BD25)\BDMV\STREAM\00000.m2ts
Format                         : BDAV
Format/Info                    : Blu-ray Video
File size                      : 23.1 GiB
Duration                       : 2 h 12 min
Overall bit rate mode          : Variable
Overall bit rate               : 25.0 Mb/s
Maximum Overall bit rate       : 35.5 Mb/s
 
Video
ID                             : 4113 (0x1011)
Menu ID                        : 1 (0x1)
Format                         : AVC
Format/Info                    : Advanced Video Codec
Format profile                 : High@L4.2
Format settings, CABAC         : Yes
Format settings, RefFrames     : 2 frames
Codec ID                       : 27
Duration                       : 2 h 12 min
Bit rate mode                  : Variable
Bit rate                       : 23.6 Mb/s
Maximum bit rate               : 25.0 Mb/s
Width                          : 1 920 pixels
Height                         : 1 080 pixels
Display aspect ratio           : 16:9
Frame rate                     : 50.000 FPS
Color space                    : YUV
Chroma subsampling             : 4:2:0
Bit depth                      : 8 bits
Scan type                      : Progressive
Bits/(Pixel*Frame)             : 0.227
Stream size                    : 21.8 GiB (94%)
 
Audio
ID                             : 4352 (0x1100)
Menu ID                        : 1 (0x1)
Format                         : AC-3
Format/Info                    : Audio Coding 3
Format settings, Endianness    : Big
Codec ID                       : 129
Duration                       : 2 h 12 min
Bit rate mode                  : Constant
Bit rate                       : 384 kb/s
Channel(s)                     : 6 channels
Channel positions              : Front: L C R, Side: L R, LFE
Sampling rate                  : 48.0 kHz
Frame rate                     : 31.250 FPS (1536 SPF)
Bit depth                      : 16 bits
Compression mode               : Lossy
Stream size                    : 363 MiB (2%)
Service kind                   : Complete Main
 
 
Thanks in advance, have a great day,
 
Arnaud / Pagarn


#2

Posted 20 April 2020 - 08:33 PM

zarko
  • Cover Artists
  • 310 posts
  • Favorite Album:They all kick ass!

Here you are:

http://www.metcovera...e.php?pid=23032



#3

Posted 20 April 2020 - 09:18 PM

Nono666
  • Members
  • 84 posts
  • Favorite Album:Ride the Lightning

Great, thank you very much !






0 user(s) are reading this topic

0 members, 0 guests, 0 anonymous users