Jump to content

Welcome to our forums!

Sign In or Register to gain full access to our forums. By registering with us, you'll be able to discuss, share and private message with other members of our community.

Close
Photo
Done

2015-05-31 - Rockavaria, Olympiapark, Munich, Germany (Metallifreak-Thumraider)



  • Please log in to reply

#1

Posted 29 April 2020 - 05:57 PM

Nono666
  • Members
  • 84 posts
  • Favorite Album:Ride the Lightning

Hi MCA !

 

Could you please create an artwork (or upgrade an existing one, I did not check first...) for the following blu-ray ?

 

Metallica - 2015-05-31 - Rockavaria, Olympiapark, Munich, Germany (Metallifreak-Thumraider BD25)
Captured by Metallifreak from Nugs TV
Authored by Thumraider
 
 
 
Setlist :
Fuel
For Whom The Bell Tolls
Metal Militia
King Nothing
Disposable Heroes
Kirk Solo I
The Unforgiven II
Cyanide
Lords Of Summer
Sad But True
Rob Solo
The Frayed Ends Of Sanity
One
Master Of Puppets
Fight Fire With Fire
Kirk Solo II
Welcome Home (Sanitarium)
Seek & Destroy
Creeping Death
Nothing Else Matters
Enter Sandman
MetOnTour Videos
 
 
General
ID                             : 1 (0x1)
Complete name                  : Metallica - 2015-05-31 - Rockavaria, Olympiapark, Munich, Germany (Metallifreak-Thumraider BD25)\BDMV\STREAM\00000.m2ts
Format                         : BDAV
Format/Info                    : Blu-ray Video
File size                      : 19.0 GiB
Duration                       : 2 h 29 min
Overall bit rate mode          : Variable
Overall bit rate               : 18.2 Mb/s
Maximum Overall bit rate       : 37.8 Mb/s
 
Video
ID                             : 4113 (0x1011)
Menu ID                        : 1 (0x1)
Format                         : MPEG Video
Format version                 : Version 2
Format profile                 : Main@High
Format settings, BVOP          : Yes
Format settings, Matrix        : Custom
Format settings, GOP           : Variable
Format settings, picture struc : Frame
Codec ID                       : 2
Duration                       : 2 h 29 min
Bit rate mode                  : Variable
Bit rate                       : 15.9 Mb/s
Maximum bit rate               : 35.0 Mb/s
Width                          : 1 920 pixels
Height                         : 1 080 pixels
Display aspect ratio           : 16:9
Frame rate                     : 29.970 (30000/1001) FPS
Standard                       : Component
Color space                    : YUV
Chroma subsampling             : 4:2:0
Bit depth                      : 8 bits
Scan type                      : Interlaced
Scan order                     : Top Field First
Compression mode               : Lossy
Bits/(Pixel*Frame)             : 0.256
Time code of first frame       : 00:00:00:00
Time code source               : Group of pictures header
GOP, Open/Closed               : Open
GOP, Open/Closed of first fram : Closed
Stream size                    : 16.7 GiB (88%)
Color primaries                : BT.709
Transfer characteristics       : BT.709
Matrix coefficients            : BT.709
 
Audio
ID                             : 4352 (0x1100)
Menu ID                        : 1 (0x1)
Format                         : PCM
Format settings, Endianness    : Big
Format settings, Sign          : Signed
Muxing mode                    : Blu-ray
Codec ID                       : 128
Duration                       : 2 h 29 min
Bit rate mode                  : Constant
Bit rate                       : 1 536 kb/s
Channel(s)                     : 2 channels
Channel positions              : Front: L R
Sampling rate                  : 48.0 kHz
Bit depth                      : 16 bits
Stream size                    : 1.61 GiB (8%)
 
 
Screenshots and menus here :
 
Thanks in advance,
 
Arnaud / PagArn


#2

Posted 30 April 2020 - 05:55 PM

zarko
  • Cover Artists
  • 310 posts
  • Favorite Album:They all kick ass!

What videos are there as bonus?



#3

Posted 30 April 2020 - 07:53 PM

Heavy62
  • Members
  • 8 posts
  • Favorite Album:Ride the Lightning

- Meet'n'greet

- Tuning room

- Sad but true (the metallica club video)

- Fight fire with fire (met.com video)

 

Voila.....



#4

Posted 01 May 2020 - 10:48 PM

zarko
  • Cover Artists
  • 310 posts
  • Favorite Album:They all kick ass!

Here you are: :)

http://www.metcovera...e.php?pid=23069



#5

Posted 02 May 2020 - 09:55 AM

Heavy62
  • Members
  • 8 posts
  • Favorite Album:Ride the Lightning

Merci mon ami, too much strong as always,

& please stay safe !

 

Thierry



#6

Posted 02 May 2020 - 11:26 AM

Nono666
  • Members
  • 84 posts
  • Favorite Album:Ride the Lightning

Thanks Zarko !!






0 user(s) are reading this topic

0 members, 0 guests, 0 anonymous users