Jump to content

Welcome to our forums!

Sign In or Register to gain full access to our forums. By registering with us, you'll be able to discuss, share and private message with other members of our community.

Close
Photo
Done

2017-03-31 - San Isidro, Buenos Aires, Argentina (Thumraider BD25)



  • Please log in to reply

#1

Posted 07 May 2020 - 10:22 AM

Nono666
  • Members
  • 84 posts
  • Favorite Album:Ride the Lightning

Hello MetCoverArt people !

 

Could you please create an artwork for the following blu-ray ?

 

Metallica - 2017-03-31 - Hipodromo de San Isidro, Buenos Aires, Argentina (Thumraider BD25)
 
Webcast sourced
2 audio tracks : webcast source + LM
 
The Ecstasy Of Gold
Hardwired
Atlas, Rise!
For Whom The Bell Tolls
The Memory Remains
One
Now That We Are Dead
Moth Into Flame
Harvester Of Sorrow
Halo On Fire
Rob's Solo
Hit The Lights
Sad But True
Wherever I May Roam
Master Of Puppets
Kirk's Solo
Fade To Black
Seek & Destroy
Fight Fire With Fire
Nothing Else Matters
Enter Sandman
 
Bonus : Met On Tour Video
One
Rehearsal
Tuning Room
 
 
General
ID                             : 1 (0x1)
Complete name                  : Metallica - 2017-03-31 - San Isidro, Buenos Aires, Argentina (Thumraider BD25)\BDMV\STREAM\00000.m2ts
Format                         : BDAV
Format/Info                    : Blu-ray Video
File size                      : 16.8 GiB
Duration                       : 2 h 28 min
Overall bit rate mode          : Variable
Overall bit rate               : 16.2 Mb/s
Maximum Overall bit rate       : 38.3 Mb/s
 
Video
ID                             : 4113 (0x1011)
Menu ID                        : 1 (0x1)
Format                         : MPEG Video
Format version                 : Version 2
Format profile                 : Main@High
Format settings, BVOP          : Yes
Format settings, Matrix        : Custom
Format settings, GOP           : Variable
Format settings, picture struc : Frame
Codec ID                       : 2
Duration                       : 2 h 28 min
Bit rate mode                  : Variable
Bit rate                       : 13.5 Mb/s
Maximum bit rate               : 35.0 Mb/s
Width                          : 1 920 pixels
Height                         : 1 080 pixels
Display aspect ratio           : 16:9
Frame rate                     : 29.970 (30000/1001) FPS
Standard                       : Component
Color space                    : YUV
Chroma subsampling             : 4:2:0
Bit depth                      : 8 bits
Scan type                      : Interlaced
Scan order                     : Top Field First
Compression mode               : Lossy
Bits/(Pixel*Frame)             : 0.218
Time code of first frame       : 00:00:00:00
Time code source               : Group of pictures header
Stream size                    : 14.0 GiB (84%)
Writing library                : TMPGEnc Authoring Works 5 Version. 5.2.2.61
Color primaries                : BT.709
Transfer characteristics       : BT.709
Matrix coefficients            : BT.709
 
Audio #1
ID                             : 4352 (0x1100)
Menu ID                        : 1 (0x1)
Format                         : PCM
Format settings, Endianness    : Big
Format settings, Sign          : Signed
Muxing mode                    : Blu-ray
Codec ID                       : 128
Duration                       : 2 h 28 min
Bit rate mode                  : Constant
Bit rate                       : 1 536 kb/s
Channel(s)                     : 2 channels
Channel positions              : Front: L R
Sampling rate                  : 48.0 kHz
Bit depth                      : 16 bits
Stream size                    : 1.59 GiB (9%)
 
Audio #2
ID                             : 4353 (0x1101)
Menu ID                        : 1 (0x1)
Format                         : AC-3
Format/Info                    : Audio Coding 3
Format settings, Endianness    : Big
Codec ID                       : 129
Duration                       : 2 h 28 min
Bit rate mode                  : Constant
Bit rate                       : 448 kb/s
Channel(s)                     : 2 channels
Channel positions              : Front: L R
Sampling rate                  : 48.0 kHz
Frame rate                     : 31.250 FPS (1536 SPF)
Bit depth                      : 16 bits
Compression mode               : Lossy
Stream size                    : 476 MiB (3%)
Service kind                   : Complete Main
 
 
Menus and screenshots here : http://www.filefacto...aider BD25).rar
 
Thanks in advance, stay healthy !
 
Arnaud aka Pagarn
 

 

 



#2

Posted 11 May 2020 - 08:24 PM

zarko
  • Cover Artists
  • 310 posts
  • Favorite Album:They all kick ass!

Here you are:

http://www.metcovera...e.php?pid=23078



#3

Posted 12 May 2020 - 07:24 AM

Nono666
  • Members
  • 84 posts
  • Favorite Album:Ride the Lightning

Thanks a lot, Yannis !!



#4

Posted 12 May 2020 - 06:14 PM

Heavy62
  • Members
  • 8 posts
  • Favorite Album:Ride the Lightning

Merci beaucoup Yannis !!!!!!!!!!!!!!!!!!



#5

Posted 19 May 2020 - 06:42 AM

Heavy62
  • Members
  • 8 posts
  • Favorite Album:Ride the Lightning

Merci my friend !!!!!!!!!!!!






0 user(s) are reading this topic

0 members, 0 guests, 0 anonymous users