Jump to content

Welcome to our forums!

Sign In or Register to gain full access to our forums. By registering with us, you'll be able to discuss, share and private message with other members of our community.

Close
Photo
Done

2014-11-08 - Blizzcon, Anaheim, California, USA (Thumraider BD25)



  • Please log in to reply

#1

Posted 08 May 2020 - 10:32 AM

Nono666
  • Members
  • 84 posts
  • Favorite Album:Ride the Lightning

Hi MCA people !

 

Could you please create an artwork for the following blu-ray ?

 

Metallica - 2014-11-08 - Blizzcon, Anaheim, California, USA (Thumraider BD25)
 
2014-11-08 - Blizzcon, Convention Center, Anaheim, California, USA
The Ecstasy Of Gold
Hit The Lights
Master Of Puppets
Ride The Lightning
Harvester Of Sorrow
Kirk Solo
Fade To Black
Fuel
Cyanide
Sad But True
One
For Whom The Bell Tolls
Creeping Death
Enter Sandman
Battery
Seek & Destroy
 
2014-11-11 - The Concert For Valor, National Mall, Washington, Washington DC, USA
For Whom The Bell Tolls
Master Of Puppets
Enter Sandman
 
2014-11-07 - Late Show With Craig Ferguson, Los Angeles, California, USA
INterview With James And Lars
Hit The Lights
Fuel
Sad But True
For Whom The Bell Tolls
 
 
General
ID                             : 1 (0x1)
Complete name                  : Metallica - 2014-11-08 - Blizzcon, Anaheim, California, USA (Thumraider BD25)\BDMV\STREAM\00000.m2ts
Format                         : BDAV
Format/Info                    : Blu-ray Video
File size                      : 21.6 GiB
Duration                       : 2 h 39 min
Overall bit rate mode          : Variable
Overall bit rate               : 19.4 Mb/s
Maximum Overall bit rate       : 36.5 Mb/s
 
Video
ID                             : 4113 (0x1011)
Menu ID                        : 1 (0x1)
Format                         : MPEG Video
Format version                 : Version 2
Format profile                 : Main@High
Format settings, BVOP          : Yes
Format settings, Matrix        : Custom
Format settings, GOP           : Variable
Format settings, picture struc : Frame
Codec ID                       : 2
Duration                       : 2 h 39 min
Bit rate mode                  : Variable
Bit rate                       : 18.2 Mb/s
Maximum bit rate               : 35.0 Mb/s
Width                          : 1 920 pixels
Height                         : 1 080 pixels
Display aspect ratio           : 16:9
Frame rate                     : 29.970 (30000/1001) FPS
Standard                       : Component
Color space                    : YUV
Chroma subsampling             : 4:2:0
Bit depth                      : 8 bits
Scan type                      : Interlaced
Scan order                     : Top Field First
Compression mode               : Lossy
Bits/(Pixel*Frame)             : 0.293
Time code of first frame       : 00:00:00:00
Time code source               : Group of pictures header
GOP, Open/Closed               : Open
GOP, Open/Closed of first fram : Closed
Stream size                    : 20.2 GiB (94%)
Writing library                : TMPGEnc Authoring Works 5 Version. 5.2.2.61
Color primaries                : BT.709
Transfer characteristics       : BT.709
Matrix coefficients            : BT.709
 
Audio
ID                             : 4352 (0x1100)
Menu ID                        : 1 (0x1)
Format                         : AC-3
Format/Info                    : Audio Coding 3
Format settings, Endianness    : Big
Codec ID                       : 129
Duration                       : 2 h 39 min
Bit rate mode                  : Constant
Bit rate                       : 448 kb/s
Channel(s)                     : 2 channels
Channel positions              : Front: L R
Sampling rate                  : 48.0 kHz
Frame rate                     : 31.250 FPS (1536 SPF)
Bit depth                      : 16 bits
Compression mode               : Lossy
Stream size                    : 510 MiB (2%)
Service kind                   : Complete Main
 
 
 
Thanks in advance, have a great day,
 
Arnaud aka Pagarn
 


#2

Posted 12 May 2020 - 07:02 PM

zarko
  • Cover Artists
  • 310 posts
  • Favorite Album:They all kick ass!

Et voilĂ !

http://www.metcovera...e.php?pid=23080



#3

Posted 12 May 2020 - 09:04 PM

Nono666
  • Members
  • 84 posts
  • Favorite Album:Ride the Lightning

Thank you very much Yannis !



#4

Posted 19 May 2020 - 06:42 AM

Heavy62
  • Members
  • 8 posts
  • Favorite Album:Ride the Lightning

Merci beaucoup mon ami, félicitations pour ce superbe travail comme a son habitude,

seeyou soon,

Thierry






0 user(s) are reading this topic

0 members, 0 guests, 0 anonymous users