Jump to content

Welcome to our forums!

Sign In or Register to gain full access to our forums. By registering with us, you'll be able to discuss, share and private message with other members of our community.

Close
Photo
Done

2016-xx-xx - Autumn 2016 (Thumraider BD50)



  • Please log in to reply

#1

Posted 08 May 2020 - 10:33 AM

Nono666
  • Members
  • 84 posts
  • Favorite Album:Ride the Lightning

Hi MCA !

 

Could you please create an artwork for the following blu-ray ?

 

Metallica - Autumn 2016 (Thumraider BD50)
 
Original audio + LM audio when existing
 
 
2019-09-24 - Central Park, New York, New York, USA
Announcement By Hugh Jackman
For Whom The Bell Tolls
Master Of Puppets
One
Nothing Else Matters
Enter Sandman
 
2016-11-14 - Studio 5, Berlin, Germany
Master Of Puppets
For Whom The Bell Tolls
Atlas, Rise!
Moth Into Flame
One
Hardwired
Enter Sandman
 
2016-11-15 - Le Grand Journal, Paris, France
Creeping Death
For Whom The Bell Tolls
Atlas, Rise!
Moth Into Flame
One
Hardwired
Enter Sandman
 
2016-11-18 - House Of Vans, London, England, UK
Breadfan
The Four Horsemen
Battery
Sad But True
Kirk Solo
Fade To Black
Atlas, Rise!
Harvester Of Sorrow
Moth Into Flame
Rob Solo
One
Master Of Puppets
For Whom The Bell Tolls
Enter Sandman
Whiskey In The Jar
Hardwired
Seek & Destroy
Happy Birthday, Kirk
 
 
 
General
ID                             : 1 (0x1)
Complete name                  : Metallica - 2016-xx-xx - Autumn 2016 (Thumraider BD25)\BDMV\STREAM\00000.m2ts
Format                         : BDAV
Format/Info                    : Blu-ray Video
File size                      : 25.8 GiB
Duration                       : 3 h 46 min
Overall bit rate mode          : Variable
Overall bit rate               : 16.3 Mb/s
Maximum Overall bit rate       : 36.5 Mb/s
 
Video
ID                             : 4113 (0x1011)
Menu ID                        : 1 (0x1)
Format                         : MPEG Video
Format version                 : Version 2
Format profile                 : Main@High
Format settings, BVOP          : Yes
Format settings, Matrix        : Custom
Format settings, GOP           : Variable
Format settings, picture struc : Frame
Codec ID                       : 2
Duration                       : 3 h 46 min
Bit rate mode                  : Variable
Bit rate                       : 15.2 Mb/s
Maximum bit rate               : 35.0 Mb/s
Width                          : 1 920 pixels
Height                         : 1 080 pixels
Display aspect ratio           : 16:9
Frame rate                     : 25.000 FPS
Standard                       : Component
Color space                    : YUV
Chroma subsampling             : 4:2:0
Bit depth                      : 8 bits
Scan type                      : Interlaced
Scan order                     : Top Field First
Compression mode               : Lossy
Bits/(Pixel*Frame)             : 0.293
Time code of first frame       : 00:00:00:00
Time code source               : Group of pictures header
Stream size                    : 24.0 GiB (93%)
Writing library                : TMPGEnc Authoring Works 5 Version. 5.2.2.61
Color primaries                : BT.709
Transfer characteristics       : BT.709
Matrix coefficients            : BT.709
 
Audio #1
ID                             : 4352 (0x1100)
Menu ID                        : 1 (0x1)
Format                         : AC-3
Format/Info                    : Audio Coding 3
Format settings, Endianness    : Big
Codec ID                       : 129
Duration                       : 3 h 46 min
Bit rate mode                  : Constant
Bit rate                       : 224 kb/s
Channel(s)                     : 2 channels
Channel positions              : Front: L R
Sampling rate                  : 48.0 kHz
Frame rate                     : 31.250 FPS (1536 SPF)
Bit depth                      : 16 bits
Compression mode               : Lossy
Stream size                    : 363 MiB (1%)
Service kind                   : Complete Main
 
Audio #2
ID                             : 4353 (0x1101)
Menu ID                        : 1 (0x1)
Format                         : AC-3
Format/Info                    : Audio Coding 3
Format settings, Endianness    : Big
Codec ID                       : 129
Duration                       : 3 h 46 min
Bit rate mode                  : Constant
Bit rate                       : 224 kb/s
Channel(s)                     : 2 channels
Channel positions              : Front: L R
Sampling rate                  : 48.0 kHz
Frame rate                     : 31.250 FPS (1536 SPF)
Bit depth                      : 16 bits
Compression mode               : Lossy
Stream size                    : 363 MiB (1%)
Service kind                   : Complete Main
 
Menus and screenshots here : 
 
 
Thanks in advance, have a great weekend,
 
Arnaud aka Pagarn
 


#2

Posted 20 May 2020 - 09:07 AM

zarko
  • Cover Artists
  • 310 posts
  • Favorite Album:They all kick ass!

Here it is:

http://www.metcovera...e.php?pid=23091



#3

Posted 20 May 2020 - 12:38 PM

Nono666
  • Members
  • 84 posts
  • Favorite Album:Ride the Lightning

Thank you very much Yannis !






0 user(s) are reading this topic

0 members, 0 guests, 0 anonymous users