Jump to content

Welcome to our forums!

Sign In or Register to gain full access to our forums. By registering with us, you'll be able to discuss, share and private message with other members of our community.

Close

Nono666

Member Since 14 Jun 2011
Offline Last Active Jan 17 2020 09:43 AM

Topics I've Started

2019-07-21 - Luzhniki Stadium, Moscow, Russia (Bellower-Thumraider BD25)

01 January 2020 - 10:32 PM

Hello Zarko !

 

Could you please create an alternative version of your already existing artwork for this version ?

 

Metallica - 2019-07-21 - Luzhniki Stadium, Moscow, Russia (Bellower-Thumraider BD25)

 

Video captured by Bellower from Nugs.net

One audio channel (source audio which is supposed to be LiveMet)

 

Bonus tracks : see enclosed screenshot here => http://www.filefacto...b4zj/Moscow.rar

 

Thanks a lot by anticipation !!!

 

 

General
ID                             : 1 (0x1)
Complete name                  : Metallica - 2019-07-21 - Luzhniki Stadium, Moscow, Russia (Bellower-Thumraider BD25)\BDMV\STREAM\00000.m2ts
Format                         : BDAV
Format/Info                    : Blu-ray Video
File size                      : 14.3 GiB
Duration                       : 2 h 40 min
Overall bit rate mode          : Variable
Overall bit rate               : 12.8 Mb/s
Maximum Overall bit rate       : 37.8 Mb/s

Video
ID                             : 4113 (0x1011)
Menu ID                        : 1 (0x1)
Format                         : MPEG Video
Format version                 : Version 2
Format profile                 : Main@High
Format settings, BVOP          : Yes
Format settings, Matrix        : Custom
Format settings, GOP           : M=3, N=18
Format settings, picture struc : Frame
Codec ID                       : 2
Duration                       : 2 h 40 min
Bit rate mode                  : Variable
Bit rate                       : 10.7 Mb/s
Maximum bit rate               : 35.0 Mb/s
Width                          : 1 920 pixels
Height                         : 1 080 pixels
Display aspect ratio           : 16:9
Frame rate                     : 29.970 (30000/1001) FPS
Standard                       : Component
Color space                    : YUV
Chroma subsampling             : 4:2:0
Bit depth                      : 8 bits
Scan type                      : Interlaced
Scan order                     : Top Field First
Compression mode               : Lossy
Bits/(Pixel*Frame)             : 0.173
Time code of first frame       : 00:00:00:00
Time code source               : Group of pictures header
GOP, Open/Closed               : Open
GOP, Open/Closed of first fram : Closed
Stream size                    : 12.0 GiB (84%)
Color primaries                : BT.709
Transfer characteristics       : BT.709
Matrix coefficients            : BT.709

Audio
ID                             : 4352 (0x1100)
Menu ID                        : 1 (0x1)
Format                         : PCM
Format settings, Endianness    : Big
Format settings, Sign          : Signed
Muxing mode                    : Blu-ray
Codec ID                       : 128
Duration                       : 2 h 40 min
Bit rate mode                  : Constant
Bit rate                       : 1 536 kb/s
Channel(s)                     : 2 channels
Channel positions              : Front: L R
Sampling rate                  : 48.0 kHz
Bit depth                      : 16 bits
Stream size                    : 1.72 GiB (12%)


 


2019-07-21 - Luzhniki Stadium, Moscow, Russia (Horrormett-Thumraider BD25)

01 January 2020 - 10:27 PM

Hello Zarko !

 

Could you please create an alternative version of your already existing artwork for this version ?

 

Metallica - 2019-07-21 - Luzhniki Stadium, Moscow, Russia (Horrormett-Thumraider BD25)

 

Video captured by Horrormett from Nugs.net

Two audio channels (source audio + LiveMet)

 

Bonus tracks : see enclosed screenshot here => http://www.horrormet...hp?details=2931

 

Thanks a lot by anticipation !!!

 

 

General
ID                             : 1 (0x1)
Complete name                  : Metallica - 2019-07-21 - Luzhniki Stadium, Moscow, Russia (Horrormett-Thumraider BD25)\BDMV\STREAM\00000.m2ts
Format                         : BDAV
Format/Info                    : Blu-ray Video
File size                      : 20.4 GiB
Duration                       : 2 h 36 min
Overall bit rate mode          : Variable
Overall bit rate               : 18.6 Mb/s
Maximum Overall bit rate       : 38.3 Mb/s

Video
ID                             : 4113 (0x1011)
Menu ID                        : 1 (0x1)
Format                         : MPEG Video
Format version                 : Version 2
Format profile                 : Main@High
Format settings, BVOP          : Yes
Format settings, Matrix        : Custom
Format settings, GOP           : M=3, N=18
Format settings, picture struc : Frame
Codec ID                       : 2
Duration                       : 2 h 36 min
Bit rate mode                  : Variable
Bit rate                       : 15.9 Mb/s
Maximum bit rate               : 35.0 Mb/s
Width                          : 1 920 pixels
Height                         : 1 080 pixels
Display aspect ratio           : 16:9
Frame rate                     : 29.970 (30000/1001) FPS
Standard                       : Component
Color space                    : YUV
Chroma subsampling             : 4:2:0
Bit depth                      : 8 bits
Scan type                      : Interlaced
Scan order                     : Top Field First
Compression mode               : Lossy
Bits/(Pixel*Frame)             : 0.256
Time code of first frame       : 00:00:00:00
Time code source               : Group of pictures header
GOP, Open/Closed               : Open
GOP, Open/Closed of first fram : Closed
Stream size                    : 17.4 GiB (85%)
Color primaries                : BT.709
Transfer characteristics       : BT.709
Matrix coefficients            : BT.709

Audio #1
ID                             : 4352 (0x1100)
Menu ID                        : 1 (0x1)
Format                         : PCM
Format settings, Endianness    : Big
Format settings, Sign          : Signed
Muxing mode                    : Blu-ray
Codec ID                       : 128
Duration                       : 2 h 36 min
Bit rate mode                  : Constant
Bit rate                       : 1 536 kb/s
Channel(s)                     : 2 channels
Channel positions              : Front: L R
Sampling rate                  : 48.0 kHz
Bit depth                      : 16 bits
Stream size                    : 1.68 GiB (8%)

Audio #2
ID                             : 4353 (0x1101)
Menu ID                        : 1 (0x1)
Format                         : AC-3
Format/Info                    : Audio Coding 3
Format settings, Endianness    : Big
Codec ID                       : 129
Duration                       : 2 h 36 min
Bit rate mode                  : Constant
Bit rate                       : 448 kb/s
Channel(s)                     : 2 channels
Channel positions              : Front: L R
Sampling rate                  : 48.0 kHz
Frame rate                     : 31.250 FPS (1536 SPF)
Bit depth                      : 16 bits
Compression mode               : Lossy
Stream size                    : 503 MiB (2%)
Service kind                   : Complete Main


 


2019-08-14 - National Arena, Bucharest, Romania (Bellower-Thumraider BD25)

01 January 2020 - 10:24 PM

Hello Zarko !

 

Could you please create an alternative version of your already existing artwork for this version ?

 

Metallica - 2019-08-14 - National Arena, Bucharest, Romania (Bellower-Thumraider BD25)

 

Video captured by Bellower from Nugs.net

One audio channel (source audio which is supposed to be LiveMet)

 

Bonus tracks : see enclosed screenshot here => http://www.horrormet...hp?details=2961

 

Thanks a lot by anticipation !!!

 

 

General
ID                             : 1 (0x1)
Complete name                  : Metallica - 2019-08-14 - National Arena, Bucharest, Romania (Bellower-Thumraider BD25)\BDMV\STREAM\00000.m2ts
Format                         : BDAV
Format/Info                    : Blu-ray Video
File size                      : 13.6 GiB
Duration                       : 2 h 36 min
Overall bit rate mode          : Variable
Overall bit rate               : 12.4 Mb/s
Maximum Overall bit rate       : 37.8 Mb/s

Video
ID                             : 4113 (0x1011)
Menu ID                        : 1 (0x1)
Format                         : MPEG Video
Format version                 : Version 2
Format profile                 : Main@High
Format settings, BVOP          : Yes
Format settings, Matrix        : Custom
Format settings, GOP           : Variable
Format settings, picture struc : Frame
Codec ID                       : 2
Duration                       : 2 h 36 min
Bit rate mode                  : Variable
Bit rate                       : 10.4 Mb/s
Maximum bit rate               : 35.0 Mb/s
Width                          : 1 920 pixels
Height                         : 1 080 pixels
Display aspect ratio           : 16:9
Frame rate                     : 29.970 (30000/1001) FPS
Standard                       : Component
Color space                    : YUV
Chroma subsampling             : 4:2:0
Bit depth                      : 8 bits
Scan type                      : Interlaced
Scan order                     : Top Field First
Compression mode               : Lossy
Bits/(Pixel*Frame)             : 0.167
Time code of first frame       : 00:00:00:00
Time code source               : Group of pictures header
GOP, Open/Closed               : Open
GOP, Open/Closed of first fram : Closed
Stream size                    : 11.4 GiB (84%)
Color primaries                : BT.709
Transfer characteristics       : BT.709
Matrix coefficients            : BT.709

Audio
ID                             : 4352 (0x1100)
Menu ID                        : 1 (0x1)
Format                         : PCM
Format settings, Endianness    : Big
Format settings, Sign          : Signed
Muxing mode                    : Blu-ray
Codec ID                       : 128
Duration                       : 2 h 36 min
Bit rate mode                  : Constant
Bit rate                       : 1 536 kb/s
Channel(s)                     : 2 channels
Channel positions              : Front: L R
Sampling rate                  : 48.0 kHz
Bit depth                      : 16 bits
Stream size                    : 1.68 GiB (12%)


 


2019-08-21 - PGE Narodowy, Warsaw, Poland (Bellower-Thumraider BD25)

01 January 2020 - 10:21 PM

Hello Zarko !

 

Could you please create an alternative version of your already existing artwork for this version ?

 

Metallica - 2019-08-21 - PGE Narodowy, Warsaw, Poland (Bellower-Thumraider BD25)

 

Video captured by Bellower from Nugs.net

One audio channel (source audio which is supposed to be LiveMet)

 

Bonus tracks : see enclosed screenshot here => http://www.filefacto...ygjv/Warsaw.rar

or here => http://www.horrormet...hp?details=2958

 

Thanks a lot by anticipation !!!

 

 

General
ID                             : 1 (0x1)
Complete name                  : Metallica - 2019-08-21 - PGE Narodowy, Warsaw, Poland (Bellower-Thumraider BD25)\BDMV\STREAM\00000.m2ts
Format                         : BDAV
Format/Info                    : Blu-ray Video
File size                      : 13.5 GiB
Duration                       : 2 h 35 min
Overall bit rate mode          : Variable
Overall bit rate               : 12.4 Mb/s
Maximum Overall bit rate       : 36.2 Mb/s

Video
ID                             : 4113 (0x1011)
Menu ID                        : 1 (0x1)
Format                         : MPEG Video
Format version                 : Version 2
Format profile                 : Main@High
Format settings, BVOP          : Yes
Format settings, Matrix        : Custom
Format settings, GOP           : Variable
Format settings, picture struc : Frame
Codec ID                       : 2
Duration                       : 2 h 35 min
Bit rate mode                  : Variable
Bit rate                       : 10.4 Mb/s
Maximum bit rate               : 33.5 Mb/s
Width                          : 1 920 pixels
Height                         : 1 080 pixels
Display aspect ratio           : 16:9
Frame rate                     : 29.970 (30000/1001) FPS
Standard                       : Component
Color space                    : YUV
Chroma subsampling             : 4:2:0
Bit depth                      : 8 bits
Scan type                      : Interlaced
Scan order                     : Top Field First
Compression mode               : Lossy
Bits/(Pixel*Frame)             : 0.167
Time code of first frame       : 00:00:00:00
Time code source               : Group of pictures header
GOP, Open/Closed               : Open
GOP, Open/Closed of first fram : Closed
Stream size                    : 11.3 GiB (84%)
Color primaries                : BT.709
Transfer characteristics       : BT.709
Matrix coefficients            : BT.709

Audio
ID                             : 4352 (0x1100)
Menu ID                        : 1 (0x1)
Format                         : PCM
Format settings, Endianness    : Big
Format settings, Sign          : Signed
Muxing mode                    : Blu-ray
Codec ID                       : 128
Duration                       : 2 h 35 min
Bit rate mode                  : Constant
Bit rate                       : 1 536 kb/s
Channel(s)                     : 2 channels
Channel positions              : Front: L R
Sampling rate                  : 48.0 kHz
Bit depth                      : 16 bits
Stream size                    : 1.67 GiB (12%)


 

 


2019-07-18 - Raadi Airfield, Tartu, Estonia (Horrormett-Thumraider BD25)

01 January 2020 - 10:13 PM

Hello Zarko !

 

Could you please create an alternative version of your already existing artwork fir this version ?

 

Metallica - 2019-07-18 - Raadi Airfield, Tartu, Estonia (Horrormett-Thumraider BD25)

 

Video captured by HorrorMet from Nugs.net

Two audio channels (stream audio, LiveMet)

 

Bonus tracks : see enclosed screenshot here => http://www.filefacto...5zenj/Tartu.rar

or here : http://www.horrormet...hp?details=2934

 

Thanks in advance !!!

 

 

General
ID                             : 1 (0x1)
Complete name                  : Metallica - 2019-07-18 - Raadi Airfield, Tartu, Estonia (Horrormett-Thumraider BD25)\BDMV\STREAM\00000.m2ts
Format                         : BDAV
Format/Info                    : Blu-ray Video
File size                      : 19.5 GiB
Duration                       : 2 h 33 min
Overall bit rate mode          : Variable
Overall bit rate               : 18.2 Mb/s
Maximum Overall bit rate       : 38.3 Mb/s

Video
ID                             : 4113 (0x1011)
Menu ID                        : 1 (0x1)
Format                         : MPEG Video
Format version                 : Version 2
Format profile                 : Main@High
Format settings, BVOP          : Yes
Format settings, Matrix        : Custom
Format settings, GOP           : Variable
Format settings, picture struc : Frame
Codec ID                       : 2
Duration                       : 2 h 33 min
Bit rate mode                  : Variable
Bit rate                       : 15.5 Mb/s
Maximum bit rate               : 35.0 Mb/s
Width                          : 1 920 pixels
Height                         : 1 080 pixels
Display aspect ratio           : 16:9
Frame rate                     : 29.970 (30000/1001) FPS
Standard                       : Component
Color space                    : YUV
Chroma subsampling             : 4:2:0
Bit depth                      : 8 bits
Scan type                      : Interlaced
Scan order                     : Top Field First
Compression mode               : Lossy
Bits/(Pixel*Frame)             : 0.249
Time code of first frame       : 00:00:00:00
Time code source               : Group of pictures header
Stream size                    : 16.6 GiB (85%)
Writing library                : TMPGEnc Authoring Works 5 Version. 5.2.2.61
Color primaries                : BT.709
Transfer characteristics       : BT.709
Matrix coefficients            : BT.709

Audio #1
ID                             : 4352 (0x1100)
Menu ID                        : 1 (0x1)
Format                         : PCM
Format settings, Endianness    : Big
Format settings, Sign          : Signed
Muxing mode                    : Blu-ray
Codec ID                       : 128
Duration                       : 2 h 33 min
Bit rate mode                  : Constant
Bit rate                       : 1 536 kb/s
Channel(s)                     : 2 channels
Channel positions              : Front: L R
Sampling rate                  : 48.0 kHz
Bit depth                      : 16 bits
Stream size                    : 1.65 GiB (8%)

Audio #2
ID                             : 4353 (0x1101)
Menu ID                        : 1 (0x1)
Format                         : AC-3
Format/Info                    : Audio Coding 3
Format settings, Endianness    : Big
Codec ID                       : 129
Duration                       : 2 h 33 min
Bit rate mode                  : Constant
Bit rate                       : 448 kb/s
Channel(s)                     : 2 channels
Channel positions              : Front: L R
Sampling rate                  : 48.0 kHz
Frame rate                     : 31.250 FPS (1536 SPF)
Bit depth                      : 16 bits
Compression mode               : Lossy
Stream size                    : 492 MiB (2%)
Service kind                   : Complete Main