Jump to content

Welcome to our forums!

Sign In or Register to gain full access to our forums. By registering with us, you'll be able to discuss, share and private message with other members of our community.

Close

Nono666

Member Since 14 Jun 2011
Offline Last Active Oct 13 2020 07:03 AM

Topics I've Started

2017-04-01 - Parque O'Higgins, Santiago, Chile (Thumraider BD25)

17 May 2020 - 09:34 PM

Hi Zarko.

 

Could you please create an alternative artwork for the following blu-ray ?

 

Metallica - 2017-04-01 - Parque O'Higgins, Santiago, Chile (BD25)
 
Authored by Thumraider from vtr.com webcast
2 audio sources : webcast & LiveMet
 
The Ecstasy Of Gold
Hardwired
Atlas, Rise!
For Whom The Bell Tolls
Fuel
One
Now That We're Dead
Moth Into Flame
Harvester Of Sorrow
Halo On Fire
Rob's Solo
Motorbreath
Sad But True
Wherever I May Roam
Master Of Puppets
Kirk's Solo
Fade To Black
Seek & Destroy
Fight Fire With Fire
Nothing Else Matters
Enter Sandman
 
Bonus
Met On Tour Video : Moth Into Flame
Tuning Room
Face To Face With James Hetfield
 
 
General
ID                             : 1 (0x1)
Complete name                  : Metallica - 2017-04-01 - Lollapalooza Chile, Santiago, Chile (Thumraider BD25)\BDMV\STREAM\00000.m2ts
Format                         : BDAV
Format/Info                    : Blu-ray Video
File size                      : 11.7 GiB
Duration                       : 2 h 30 min
Overall bit rate mode          : Variable
Overall bit rate               : 11.1 Mb/s
Maximum Overall bit rate       : 33.0 Mb/s
 
Video
ID                             : 4113 (0x1011)
Menu ID                        : 1 (0x1)
Format                         : AVC
Format/Info                    : Advanced Video Codec
Format profile                 : High@L4.1
Format settings, CABAC         : Yes
Format settings, RefFrames     : 4 frames
Codec ID                       : 27
Duration                       : 2 h 30 min
Bit rate mode                  : Variable
Bit rate                       : 8 875 kb/s
Nominal bit rate               : 17.1 Mb/s
Maximum bit rate               : 30.0 Mb/s
Width                          : 1 920 pixels
Height                         : 1 080 pixels
Display aspect ratio           : 16:9
Frame rate                     : 29.970 (30000/1001) FPS
Standard                       : Component
Color space                    : YUV
Chroma subsampling             : 4:2:0
Bit depth                      : 8 bits
Scan type                      : Interlaced
Scan type, store method        : Separated fields
Scan order                     : Top Field First
Bits/(Pixel*Frame)             : 0.143
Stream size                    : 9.34 GiB (80%)
Writing library                : x264 core 136
Encoding settings              : cabac=1 / ref=8 / deblock=1:0:0 / analyse=0x3:0x113 / me=hex / subme=4 / psy=1 / psy_rd=1.00:0.00 / mixed_ref=0 / me_range=16 / chroma_me=1 / trellis=1 / 8x8dct=1 / cqm=2 / deadzone=21,11 / fast_pskip=1 / chroma_qp_offset=0 / threads=6 / lookahead_threads=1 / sliced_threads=0 / slices=4 / nr=0 / decimate=1 / interlaced=0 / bluray_compat=1 / constrained_intra=0 / bframes=6 / b_pyramid=0 / b_adapt=1 / b_bias=0 / direct=1 / weightb=1 / open_gop=1 / weightp=0 / keyint=60 / keyint_min=2 / scenecut=40 / intra_refresh=0 / rc_lookahead=20 / rc=abr / mbtree=1 / bitrate=17128 / ratetol=1.0 / qcomp=0.60 / qpmin=1 / qpmax=51 / qpstep=4 / vbv_maxrate=29999 / vbv_bufsize=30000 / nal_hrd=vbr / ip_ratio=1.40 / aq=1:1.00
Color range                    : Limited
Color primaries                : BT.709
Transfer characteristics       : BT.709
Matrix coefficients            : BT.709
 
Audio #1
ID                             : 4352 (0x1100)
Menu ID                        : 1 (0x1)
Format                         : PCM
Format settings, Endianness    : Big
Format settings, Sign          : Signed
Muxing mode                    : Blu-ray
Codec ID                       : 128
Duration                       : 2 h 30 min
Bit rate mode                  : Constant
Bit rate                       : 1 536 kb/s
Channel(s)                     : 2 channels
Channel positions              : Front: L R
Sampling rate                  : 48.0 kHz
Bit depth                      : 16 bits
Stream size                    : 1.62 GiB (14%)
 
Audio #2
ID                             : 4353 (0x1101)
Menu ID                        : 1 (0x1)
Format                         : AC-3
Format/Info                    : Audio Coding 3
Format settings, Endianness    : Big
Codec ID                       : 129
Duration                       : 2 h 30 min
Bit rate mode                  : Constant
Bit rate                       : 224 kb/s
Channel(s)                     : 2 channels
Channel positions              : Front: L R
Sampling rate                  : 48.0 kHz
Frame rate                     : 31.250 FPS (1536 SPF)
Bit depth                      : 16 bits
Compression mode               : Lossy
Stream size                    : 241 MiB (2%)
Service kind                   : Complete Main
 
Menus and screenshots here :
 
 
Thanks in advance,
 
Arnaud / Pagarn
 

2016-xx-xx - Autumn 2016 (Thumraider BD50)

08 May 2020 - 10:33 AM

Hi MCA !

 

Could you please create an artwork for the following blu-ray ?

 

Metallica - Autumn 2016 (Thumraider BD50)
 
Original audio + LM audio when existing
 
 
2019-09-24 - Central Park, New York, New York, USA
Announcement By Hugh Jackman
For Whom The Bell Tolls
Master Of Puppets
One
Nothing Else Matters
Enter Sandman
 
2016-11-14 - Studio 5, Berlin, Germany
Master Of Puppets
For Whom The Bell Tolls
Atlas, Rise!
Moth Into Flame
One
Hardwired
Enter Sandman
 
2016-11-15 - Le Grand Journal, Paris, France
Creeping Death
For Whom The Bell Tolls
Atlas, Rise!
Moth Into Flame
One
Hardwired
Enter Sandman
 
2016-11-18 - House Of Vans, London, England, UK
Breadfan
The Four Horsemen
Battery
Sad But True
Kirk Solo
Fade To Black
Atlas, Rise!
Harvester Of Sorrow
Moth Into Flame
Rob Solo
One
Master Of Puppets
For Whom The Bell Tolls
Enter Sandman
Whiskey In The Jar
Hardwired
Seek & Destroy
Happy Birthday, Kirk
 
 
 
General
ID                             : 1 (0x1)
Complete name                  : Metallica - 2016-xx-xx - Autumn 2016 (Thumraider BD25)\BDMV\STREAM\00000.m2ts
Format                         : BDAV
Format/Info                    : Blu-ray Video
File size                      : 25.8 GiB
Duration                       : 3 h 46 min
Overall bit rate mode          : Variable
Overall bit rate               : 16.3 Mb/s
Maximum Overall bit rate       : 36.5 Mb/s
 
Video
ID                             : 4113 (0x1011)
Menu ID                        : 1 (0x1)
Format                         : MPEG Video
Format version                 : Version 2
Format profile                 : Main@High
Format settings, BVOP          : Yes
Format settings, Matrix        : Custom
Format settings, GOP           : Variable
Format settings, picture struc : Frame
Codec ID                       : 2
Duration                       : 3 h 46 min
Bit rate mode                  : Variable
Bit rate                       : 15.2 Mb/s
Maximum bit rate               : 35.0 Mb/s
Width                          : 1 920 pixels
Height                         : 1 080 pixels
Display aspect ratio           : 16:9
Frame rate                     : 25.000 FPS
Standard                       : Component
Color space                    : YUV
Chroma subsampling             : 4:2:0
Bit depth                      : 8 bits
Scan type                      : Interlaced
Scan order                     : Top Field First
Compression mode               : Lossy
Bits/(Pixel*Frame)             : 0.293
Time code of first frame       : 00:00:00:00
Time code source               : Group of pictures header
Stream size                    : 24.0 GiB (93%)
Writing library                : TMPGEnc Authoring Works 5 Version. 5.2.2.61
Color primaries                : BT.709
Transfer characteristics       : BT.709
Matrix coefficients            : BT.709
 
Audio #1
ID                             : 4352 (0x1100)
Menu ID                        : 1 (0x1)
Format                         : AC-3
Format/Info                    : Audio Coding 3
Format settings, Endianness    : Big
Codec ID                       : 129
Duration                       : 3 h 46 min
Bit rate mode                  : Constant
Bit rate                       : 224 kb/s
Channel(s)                     : 2 channels
Channel positions              : Front: L R
Sampling rate                  : 48.0 kHz
Frame rate                     : 31.250 FPS (1536 SPF)
Bit depth                      : 16 bits
Compression mode               : Lossy
Stream size                    : 363 MiB (1%)
Service kind                   : Complete Main
 
Audio #2
ID                             : 4353 (0x1101)
Menu ID                        : 1 (0x1)
Format                         : AC-3
Format/Info                    : Audio Coding 3
Format settings, Endianness    : Big
Codec ID                       : 129
Duration                       : 3 h 46 min
Bit rate mode                  : Constant
Bit rate                       : 224 kb/s
Channel(s)                     : 2 channels
Channel positions              : Front: L R
Sampling rate                  : 48.0 kHz
Frame rate                     : 31.250 FPS (1536 SPF)
Bit depth                      : 16 bits
Compression mode               : Lossy
Stream size                    : 363 MiB (1%)
Service kind                   : Complete Main
 
Menus and screenshots here : 
 
 
Thanks in advance, have a great weekend,
 
Arnaud aka Pagarn
 

2014-11-08 - Blizzcon, Anaheim, California, USA (Thumraider BD25)

08 May 2020 - 10:32 AM

Hi MCA people !

 

Could you please create an artwork for the following blu-ray ?

 

Metallica - 2014-11-08 - Blizzcon, Anaheim, California, USA (Thumraider BD25)
 
2014-11-08 - Blizzcon, Convention Center, Anaheim, California, USA
The Ecstasy Of Gold
Hit The Lights
Master Of Puppets
Ride The Lightning
Harvester Of Sorrow
Kirk Solo
Fade To Black
Fuel
Cyanide
Sad But True
One
For Whom The Bell Tolls
Creeping Death
Enter Sandman
Battery
Seek & Destroy
 
2014-11-11 - The Concert For Valor, National Mall, Washington, Washington DC, USA
For Whom The Bell Tolls
Master Of Puppets
Enter Sandman
 
2014-11-07 - Late Show With Craig Ferguson, Los Angeles, California, USA
INterview With James And Lars
Hit The Lights
Fuel
Sad But True
For Whom The Bell Tolls
 
 
General
ID                             : 1 (0x1)
Complete name                  : Metallica - 2014-11-08 - Blizzcon, Anaheim, California, USA (Thumraider BD25)\BDMV\STREAM\00000.m2ts
Format                         : BDAV
Format/Info                    : Blu-ray Video
File size                      : 21.6 GiB
Duration                       : 2 h 39 min
Overall bit rate mode          : Variable
Overall bit rate               : 19.4 Mb/s
Maximum Overall bit rate       : 36.5 Mb/s
 
Video
ID                             : 4113 (0x1011)
Menu ID                        : 1 (0x1)
Format                         : MPEG Video
Format version                 : Version 2
Format profile                 : Main@High
Format settings, BVOP          : Yes
Format settings, Matrix        : Custom
Format settings, GOP           : Variable
Format settings, picture struc : Frame
Codec ID                       : 2
Duration                       : 2 h 39 min
Bit rate mode                  : Variable
Bit rate                       : 18.2 Mb/s
Maximum bit rate               : 35.0 Mb/s
Width                          : 1 920 pixels
Height                         : 1 080 pixels
Display aspect ratio           : 16:9
Frame rate                     : 29.970 (30000/1001) FPS
Standard                       : Component
Color space                    : YUV
Chroma subsampling             : 4:2:0
Bit depth                      : 8 bits
Scan type                      : Interlaced
Scan order                     : Top Field First
Compression mode               : Lossy
Bits/(Pixel*Frame)             : 0.293
Time code of first frame       : 00:00:00:00
Time code source               : Group of pictures header
GOP, Open/Closed               : Open
GOP, Open/Closed of first fram : Closed
Stream size                    : 20.2 GiB (94%)
Writing library                : TMPGEnc Authoring Works 5 Version. 5.2.2.61
Color primaries                : BT.709
Transfer characteristics       : BT.709
Matrix coefficients            : BT.709
 
Audio
ID                             : 4352 (0x1100)
Menu ID                        : 1 (0x1)
Format                         : AC-3
Format/Info                    : Audio Coding 3
Format settings, Endianness    : Big
Codec ID                       : 129
Duration                       : 2 h 39 min
Bit rate mode                  : Constant
Bit rate                       : 448 kb/s
Channel(s)                     : 2 channels
Channel positions              : Front: L R
Sampling rate                  : 48.0 kHz
Frame rate                     : 31.250 FPS (1536 SPF)
Bit depth                      : 16 bits
Compression mode               : Lossy
Stream size                    : 510 MiB (2%)
Service kind                   : Complete Main
 
 
 
Thanks in advance, have a great day,
 
Arnaud aka Pagarn
 

2017-03-31 - San Isidro, Buenos Aires, Argentina (Thumraider BD25)

07 May 2020 - 10:22 AM

Hello MetCoverArt people !

 

Could you please create an artwork for the following blu-ray ?

 

Metallica - 2017-03-31 - Hipodromo de San Isidro, Buenos Aires, Argentina (Thumraider BD25)
 
Webcast sourced
2 audio tracks : webcast source + LM
 
The Ecstasy Of Gold
Hardwired
Atlas, Rise!
For Whom The Bell Tolls
The Memory Remains
One
Now That We Are Dead
Moth Into Flame
Harvester Of Sorrow
Halo On Fire
Rob's Solo
Hit The Lights
Sad But True
Wherever I May Roam
Master Of Puppets
Kirk's Solo
Fade To Black
Seek & Destroy
Fight Fire With Fire
Nothing Else Matters
Enter Sandman
 
Bonus : Met On Tour Video
One
Rehearsal
Tuning Room
 
 
General
ID                             : 1 (0x1)
Complete name                  : Metallica - 2017-03-31 - San Isidro, Buenos Aires, Argentina (Thumraider BD25)\BDMV\STREAM\00000.m2ts
Format                         : BDAV
Format/Info                    : Blu-ray Video
File size                      : 16.8 GiB
Duration                       : 2 h 28 min
Overall bit rate mode          : Variable
Overall bit rate               : 16.2 Mb/s
Maximum Overall bit rate       : 38.3 Mb/s
 
Video
ID                             : 4113 (0x1011)
Menu ID                        : 1 (0x1)
Format                         : MPEG Video
Format version                 : Version 2
Format profile                 : Main@High
Format settings, BVOP          : Yes
Format settings, Matrix        : Custom
Format settings, GOP           : Variable
Format settings, picture struc : Frame
Codec ID                       : 2
Duration                       : 2 h 28 min
Bit rate mode                  : Variable
Bit rate                       : 13.5 Mb/s
Maximum bit rate               : 35.0 Mb/s
Width                          : 1 920 pixels
Height                         : 1 080 pixels
Display aspect ratio           : 16:9
Frame rate                     : 29.970 (30000/1001) FPS
Standard                       : Component
Color space                    : YUV
Chroma subsampling             : 4:2:0
Bit depth                      : 8 bits
Scan type                      : Interlaced
Scan order                     : Top Field First
Compression mode               : Lossy
Bits/(Pixel*Frame)             : 0.218
Time code of first frame       : 00:00:00:00
Time code source               : Group of pictures header
Stream size                    : 14.0 GiB (84%)
Writing library                : TMPGEnc Authoring Works 5 Version. 5.2.2.61
Color primaries                : BT.709
Transfer characteristics       : BT.709
Matrix coefficients            : BT.709
 
Audio #1
ID                             : 4352 (0x1100)
Menu ID                        : 1 (0x1)
Format                         : PCM
Format settings, Endianness    : Big
Format settings, Sign          : Signed
Muxing mode                    : Blu-ray
Codec ID                       : 128
Duration                       : 2 h 28 min
Bit rate mode                  : Constant
Bit rate                       : 1 536 kb/s
Channel(s)                     : 2 channels
Channel positions              : Front: L R
Sampling rate                  : 48.0 kHz
Bit depth                      : 16 bits
Stream size                    : 1.59 GiB (9%)
 
Audio #2
ID                             : 4353 (0x1101)
Menu ID                        : 1 (0x1)
Format                         : AC-3
Format/Info                    : Audio Coding 3
Format settings, Endianness    : Big
Codec ID                       : 129
Duration                       : 2 h 28 min
Bit rate mode                  : Constant
Bit rate                       : 448 kb/s
Channel(s)                     : 2 channels
Channel positions              : Front: L R
Sampling rate                  : 48.0 kHz
Frame rate                     : 31.250 FPS (1536 SPF)
Bit depth                      : 16 bits
Compression mode               : Lossy
Stream size                    : 476 MiB (3%)
Service kind                   : Complete Main
 
 
Menus and screenshots here : http://www.filefacto...aider BD25).rar
 
Thanks in advance, stay healthy !
 
Arnaud aka Pagarn
 

 

 


2009-07-22 - Forum København, Copenhagen, Denmark (Metallifreak-Thumraider BD25)

29 April 2020 - 06:54 PM

Hi Zarko !

 

Could you please create a variant of your recent artwork for this bootleg ?

 

Metallica - 2009-07-22 - Forum København, Copenhagen, Denmark (Metallifreak-Thumraider BD25)
 
Captured by Metallifreak from Nugs TV
Authored by Thumraider
 
Setlist :
That Was Just Your Life
The End Of The Line
Creeping Death
Holier Than Thou
One
Broken, Beat & Scarred
The Four Horsemen
Sad But True
The Unforgiven
The Judas Kiss
Kirk Solo I
The Day That Never Comes
Master Of Puppets
Damage, Inc
Kirk Solo II
Nothing Else Matters
Enter Sandman
Stone Cold Crazy
Trapped Under Ice
 
Bonus MetOnTour Videos :
Seek & Destroy
The End Of The Line
The Judas Kiss
Trapped Under Ice
 
 
General
ID                             : 1 (0x1)
Complete name                  : Metallica - 2009-07-22 - Forum København, Copenhagen, Denmark (Metallifreak-Thumraider BD25)\BDMV\STREAM\00000.m2ts
Format                         : BDAV
Format/Info                    : Blu-ray Video
File size                      : 18.5 GiB
Duration                       : 2 h 30 min
Overall bit rate mode          : Variable
Overall bit rate               : 17.7 Mb/s
Maximum Overall bit rate       : 37.8 Mb/s
 
Video
ID                             : 4113 (0x1011)
Menu ID                        : 1 (0x1)
Format                         : MPEG Video
Format version                 : Version 2
Format profile                 : Main@High
Format settings, BVOP          : Yes
Format settings, Matrix        : Custom
Format settings, GOP           : Variable
Format settings, picture struc : Frame
Codec ID                       : 2
Duration                       : 2 h 30 min
Bit rate mode                  : Variable
Bit rate                       : 15.4 Mb/s
Maximum bit rate               : 35.0 Mb/s
Width                          : 1 920 pixels
Height                         : 1 080 pixels
Display aspect ratio           : 16:9
Frame rate                     : 29.970 (30000/1001) FPS
Standard                       : Component
Color space                    : YUV
Chroma subsampling             : 4:2:0
Bit depth                      : 8 bits
Scan type                      : Interlaced
Scan order                     : Top Field First
Compression mode               : Lossy
Bits/(Pixel*Frame)             : 0.248
Time code of first frame       : 00:00:00:00
Time code source               : Group of pictures header
Stream size                    : 16.2 GiB (87%)
Color primaries                : BT.709
Transfer characteristics       : BT.709
Matrix coefficients            : BT.709
 
Audio
ID                             : 4352 (0x1100)
Menu ID                        : 1 (0x1)
Format                         : PCM
Format settings, Endianness    : Big
Format settings, Sign          : Signed
Muxing mode                    : Blu-ray
Codec ID                       : 128
Duration                       : 2 h 30 min
Bit rate mode                  : Constant
Bit rate                       : 1 536 kb/s
Channel(s)                     : 2 channels
Channel positions              : Front: L R
Sampling rate                  : 48.0 kHz
Bit depth                      : 16 bits
Stream size                    : 1.61 GiB (9%)
 
Menu and screenshots here :
 
Thanks in advance, have a great day,
 
Arnaud / Pagarn