Jump to content

Photo
Artwork Request

2006-06-03 - Rock am Ring, Nürburgring, Germany (Sledneck BD25 with LiveMet audio)



  • Please log in to reply
3 replies to this topic

#1 Nono666

Nono666
  • Members
  • 26 posts

Posted 28 June 2018 - 07:47 AM

Hi All & Zarko !

 

IS it possible to adapt the latest artwork made by Zarko for I-vanm concerning this show ?

(Link : http://www.metcovera...p_display_media)

This is a new version by Sledneck from the HD broadcast with LiveMet audio.

 

Screenshots coming soon...

 

 

Metallica
Rock am Ring
Nürburgring, Germany
June 3, 2006

Setlist:

Ecstasy of Gold
Creeping Death
Fuel
Wherever I May Roam
For Whom the Bell Tolls
Kirk's First Guitar Solo
Fade to Black
Battery
Master of Puppets
The Thing That Should Not Be
Kirk's Second Guitar Solo
Welcome Home (Sanitarium)
Disposable Heroes
Leper Messiah
Orion
Damage, Inc.
Sad But True
Nothing Else Matters
One
Enter Sandman
Last Caress
Seek & Destroy

Blu-Ray with LiveMetallica audio.
This show has been rebroadcasted on WDR HD on October 9, 2017. It was filmed in SD so this is an upscale by the broadcaster to 720p. Video bitrate has gone up from 6400 to 9000. Don't know if it's worth it if you have the original version (which is available with LiveMetallica audio too). If you don't have it - this is probably the ultimate version.
No reencoding has been done on my part.


General
ID : 1 (0x1)
Complete name : E:\BDMV\STREAM\00000.m2ts
Format : BDAV
Format/Info : Blu-ray Video
File size : 11.0 GiB
Duration : 2 h 15 min
Overall bit rate mode : Variable
Overall bit rate : 11.7 Mb/s
Maximum Overall bit rate : 35.5 Mb/s

Video
ID : 4113 (0x1011)
Menu ID : 1 (0x1)
Format : AVC
Format/Info : Advanced Video Codec
Format profile : High@L4
Format settings : CABAC / 4 Ref Frames
Format settings, CABAC : Yes
Format settings, RefFrames : 4 frames
Format settings, GOP : M=6, N=32
Codec ID : 27
Duration : 2 h 15 min
Bit rate mode : Variable
Bit rate : 9 194 kb/s
Maximum bit rate : 40.0 Mb/s
Width : 1 280 pixels
Height : 720 pixels
Display aspect ratio : 16:9
Frame rate : 50.000 FPS
Color space : YUV
Chroma subsampling : 4:2:0
Bit depth : 8 bits
Scan type : Progressive
Bits/(Pixel*Frame) : 0.200
Stream size : 8.72 GiB (79%)

Audio #1
ID : 4352 (0x1100)
Menu ID : 1 (0x1)
Format : PCM
Format settings : Big / Signed
Muxing mode : Blu-ray
Codec ID : 128
Duration : 2 h 15 min
Bit rate mode : Constant
Bit rate : 1 536 kb/s
Channel(s) : 2 channels
Channel positions : Front: L R
Sampling rate : 48.0 kHz
Bit depth : 16 bits
Delay relative to video : 120 ms
Stream size : 1.46 GiB (13%)
Language : English

Audio #2
ID : 4353 (0x1101)
Menu ID : 1 (0x1)
Format : AC-3
Format/Info : Audio Coding 3
Codec ID : 129
Duration : 2 h 15 min
Bit rate mode : Constant
Bit rate : 448 kb/s
Channel(s) : 2 channels
Channel positions : Front: L R
Sampling rate : 48.0 kHz
Frame rate : 31.250 FPS (1536 SPF)
Bit depth : 16 bits
Compression mode : Lossy
Delay relative to video : 60 ms
Stream size : 435 MiB (4%)
Language : German
Service kind : Complete Main
 

Taken from METJITF (link : http://www.metjitf.c...=110685#p110685)

 

Download link available on demand...

 

 

Thanks in advance !

Cheers,

 

Arnaud aka PagArn


Edited by Nono666, 28 June 2018 - 07:48 AM.


#2 Nono666

Nono666
  • Members
  • 26 posts

Posted 29 June 2018 - 01:53 PM

Screenshots...



#3 zarko

zarko
  • Cover Artists
  • 258 posts
  • Gender:Male
  • Location:Greece

Posted 01 July 2018 - 10:12 PM

Here it is:

http://www.metcovera...e.php?pid=22286



#4 Nono666

Nono666
  • Members
  • 26 posts

Posted 02 July 2018 - 06:59 AM

Thanks a lot !







2 user(s) are reading this topic

0 members, 2 guests, 0 anonymous users