Jump to content

Photo
Done

2018-10-06 - Austin City Limits, Austin, Texas, USA (Sledneck BD25 with LM audio)



  • Please log in to reply
4 replies to this topic

#1 Nono666

Nono666
  • Members
  • 29 posts

Posted 25 October 2018 - 09:35 AM

Hello MetCoverArt people.

 

Could you please create a nice artwork for the following blu-ray ?

 

Metallica
Austin City Limits Music Festival
Honda Stage
Zilker Park
Austin, Texas
October 6, 2018

Ecstasy of Gold
Hardwired
Atlas, Rise!
Seek & Destroy
Creeping Death
Welcome Home (Sanitarium)
Now That We're Dead
For Whom the Bells Tolls
Fade to Black
Kirk & Rob doodle
(Anesthesia) Pulling Teeth
Fuel
Moth Into Flame
Sad but True
One
Master of Puppets
Battery
Nothing Else Matters
Enter Sandman

Blu-Ray from webcast. Source: 6 GB .ts file. With LiveMetallica audio, chapters, menu and pop-up menu.
Note: The video is 1080p / 30fps, which is technically not Blu-Ray compliant. Works fine on my PC and BR-player but I guess there is a chance it won't work on some players.
This is my first attempt at authoring using Blu-Disc Studio Lite. The tool does not reencode video (but also doesn't check for compliance, see above) and you can make some nice menus. Chapters are a bit off, always earlier though, because they are set at I-frames.

General
ID                                       : 1 (0x1)
Complete name                            : ...\BDMV\STREAM\00004.m2ts
Format                                   : BDAV
Format/Info                              : Blu-ray Video
File size                                : 9.64 GiB
Duration                                 : 2 h 4 min
Overall bit rate mode                    : Variable
Overall bit rate                         : 11.1 Mb/s
Maximum Overall bit rate                 : 35.5 Mb/s

Video
ID                                       : 4113 (0x1011)
Menu ID                                  : 1 (0x1)
Format                                   : AVC
Format/Info                              : Advanced Video Codec
Format profile                           : Main@L4
Format settings                          : 2 Ref Frames
Format settings, CABAC                   : No
Format settings, RefFrames               : 2 frames
Codec ID                                 : 27
Duration                                 : 2 h 4 min
Bit rate mode                            : Constant
Bit rate                                 : 6 500 kb/s
Width                                    : 1 920 pixels
Height                                   : 1 080 pixels
Display aspect ratio                     : 16:9
Frame rate                               : 30.000 FPS
Color space                              : YUV
Chroma subsampling                       : 4:2:0
Bit depth                                : 8 bits
Scan type                                : Progressive
Bits/(Pixel*Frame)                       : 0.104
Stream size                              : 5.91 GiB (61%)

Audio #1
ID                                       : 4352 (0x1100)
Menu ID                                  : 1 (0x1)
Format                                   : PCM
Format settings                          : Big / Signed
Muxing mode                              : Blu-ray
Codec ID                                 : 128
Duration                                 : 2 h 4 min
Bit rate mode                            : Constant
Bit rate                                 : 2 304 kb/s
Channel(s)                               : 2 channels
Channel layout                           : L R
Sampling rate                            : 48.0 kHz
Bit depth                                : 24 bits
Stream size                              : 2.00 GiB (21%)

Audio #2
ID                                       : 4353 (0x1101)
Menu ID                                  : 1 (0x1)
Format                                   : PCM
Format settings                          : Big / Signed
Muxing mode                              : Blu-ray
Codec ID                                 : 128
Duration                                 : 2 h 4 min
Bit rate mode                            : Constant
Bit rate                                 : 1 536 kb/s
Channel(s)                               : 2 channels
Channel layout                           : L R
Sampling rate                            : 48.0 kHz
Bit depth                                : 16 bits
Stream size                              : 1.33 GiB (14%)
 

 

Link with all data + download link : http://www.metjitf.c...hp?f=79&t=18788

 

Thanks in advance, cheers,

 

Pagarn / Nono

 

 

Attached Files



#2 Nono666

Nono666
  • Members
  • 29 posts

Posted 25 October 2018 - 10:32 AM

Duration : 2:04:24



#3 zarko

zarko
  • Cover Artists
  • 270 posts

Posted 02 November 2018 - 09:31 PM

Here it is, enjoy!

http://www.metcovera...e.php?pid=22369



#4 Nono666

Nono666
  • Members
  • 29 posts

Posted 02 November 2018 - 09:40 PM

Really beautiful as usual, thanks a lot Zarko !

Merci Yannis !!



#5 norbinho

norbinho
  • Supporters
  • 12 posts

Posted 06 November 2018 - 06:48 PM

beautiful work as always, my friend :D thank you very much :D






0 user(s) are reading this topic

0 members, 0 guests, 0 anonymous users