Jump to content

Welcome to our forums!

Sign In or Register to gain full access to our forums. By registering with us, you'll be able to discuss, share and private message with other members of our community.

Close
Photo
Done

2019-07-09 - Ullevi Stadium, Gothenburg, Sweden (HorrorMet-Thumraider BD25)



  • Please log in to reply

#1

Posted 31 December 2019 - 11:33 AM

Nono666
  • Members
  • 59 posts
  • Favorite Album:Ride the Lightning

Hello Zarko !

 

Could you please create an alternative version of your already existing artwork fir this version ?

 

Metallica - 2019-07-09 - Ullevi Stadium, Gothenburg, Sweden (HorrorMet-Thumraider BD25)

 

Video captured by HorrorMet from Nugs.net

Two audio channels (stream audio, LiveMet)

 

Bonus tracks : see enclosed screenshot.

 

Thanks in advance !!!

 

 

General
ID                             : 1 (0x1)
Complete name                  : H:\= MUSIQUE =\== Blu-rays ==\En attente\Metallica - 2019-07-09 - Ullevi Stadium, Gothenburg, Sweden (HorrorMet-Thumraider BD25)\BDMV\STREAM\00000.m2ts
Format                         : BDAV
Format/Info                    : Blu-ray Video
File size                      : 20.4 GiB
Duration                       : 2 h 49 min
Overall bit rate mode          : Variable
Overall bit rate               : 17.3 Mb/s
Maximum Overall bit rate       : 38.3 Mb/s

Video
ID                             : 4113 (0x1011)
Menu ID                        : 1 (0x1)
Format                         : MPEG Video
Format version                 : Version 2
Format profile                 : Main@High
Format settings, BVOP          : Yes
Format settings, Matrix        : Custom
Format settings, GOP           : Variable
Format settings, picture struc : Frame
Codec ID                       : 2
Duration                       : 2 h 49 min
Bit rate mode                  : Variable
Bit rate                       : 14.6 Mb/s
Maximum bit rate               : 35.0 Mb/s
Width                          : 1 920 pixels
Height                         : 1 080 pixels
Display aspect ratio           : 16:9
Frame rate                     : 29.970 (30000/1001) FPS
Standard                       : Component
Color space                    : YUV
Chroma subsampling             : 4:2:0
Bit depth                      : 8 bits
Scan type                      : Interlaced
Scan order                     : Top Field First
Compression mode               : Lossy
Bits/(Pixel*Frame)             : 0.236
Time code of first frame       : 00:00:00:00
Time code source               : Group of pictures header
GOP, Open/Closed               : Open
GOP, Open/Closed of first fram : Closed
Stream size                    : 17.3 GiB (85%)
Writing library                : TMPGEnc Authoring Works 5 Version. 5.2.2.61
Color primaries                : BT.709
Transfer characteristics       : BT.709
Matrix coefficients            : BT.709

Audio #1
ID                             : 4352 (0x1100)
Menu ID                        : 1 (0x1)
Format                         : PCM
Format settings, Endianness    : Big
Format settings, Sign          : Signed
Muxing mode                    : Blu-ray
Codec ID                       : 128
Duration                       : 2 h 49 min
Bit rate mode                  : Constant
Bit rate                       : 1 536 kb/s
Channel(s)                     : 2 channels
Channel positions              : Front: L R
Sampling rate                  : 48.0 kHz
Bit depth                      : 16 bits
Stream size                    : 1.81 GiB (9%)

Audio #2
ID                             : 4353 (0x1101)
Menu ID                        : 1 (0x1)
Format                         : AC-3
Format/Info                    : Audio Coding 3
Format settings, Endianness    : Big
Codec ID                       : 129
Duration                       : 2 h 49 min
Bit rate mode                  : Constant
Bit rate                       : 448 kb/s
Channel(s)                     : 2 channels
Channel positions              : Front: L R
Sampling rate                  : 48.0 kHz
Frame rate                     : 31.250 FPS (1536 SPF)
Bit depth                      : 16 bits
Compression mode               : Lossy
Stream size                    : 542 MiB (3%)
Service kind                   : Complete Main


 

Attached Files



#2

Posted 31 December 2019 - 10:38 PM

zarko
  • Cover Artists
  • 296 posts
  • Favorite Album:They all kick ass!

Done, enjoy:

http://www.metcovera...e.php?pid=22822



#3

Posted 31 December 2019 - 11:43 PM

Nono666
  • Members
  • 59 posts
  • Favorite Album:Ride the Lightning

Thanks a lot my friend, and a HAPPY NEW YEAR !!!



#4

Posted 01 January 2020 - 04:28 PM

Heavy62
  • Members
  • 1 posts
  • Favorite Album:Ride the Lightning

Salut,

 

The god that failed n'est pas en bonus, sauf erreur de ma part !

Th



#5

Posted 01 January 2020 - 06:52 PM

zarko
  • Cover Artists
  • 296 posts
  • Favorite Album:They all kick ass!

It says here that it's a metontour bonus, isn't it?

http://www.horrormet...hp?details=2922






0 user(s) are reading this topic

0 members, 0 guests, 0 anonymous users