Jump to content

Welcome to our forums!

Sign In or Register to gain full access to our forums. By registering with us, you'll be able to discuss, share and private message with other members of our community.

Close
Photo
Done

2009-07-22 - Forum København, Copenhagen, Denmark (Metallifreak-Thumraider BD25)



  • Please log in to reply

#1

Posted 29 April 2020 - 06:54 PM

Nono666
  • Members
  • 84 posts
  • Favorite Album:Ride the Lightning

Hi Zarko !

 

Could you please create a variant of your recent artwork for this bootleg ?

 

Metallica - 2009-07-22 - Forum København, Copenhagen, Denmark (Metallifreak-Thumraider BD25)
 
Captured by Metallifreak from Nugs TV
Authored by Thumraider
 
Setlist :
That Was Just Your Life
The End Of The Line
Creeping Death
Holier Than Thou
One
Broken, Beat & Scarred
The Four Horsemen
Sad But True
The Unforgiven
The Judas Kiss
Kirk Solo I
The Day That Never Comes
Master Of Puppets
Damage, Inc
Kirk Solo II
Nothing Else Matters
Enter Sandman
Stone Cold Crazy
Trapped Under Ice
 
Bonus MetOnTour Videos :
Seek & Destroy
The End Of The Line
The Judas Kiss
Trapped Under Ice
 
 
General
ID                             : 1 (0x1)
Complete name                  : Metallica - 2009-07-22 - Forum København, Copenhagen, Denmark (Metallifreak-Thumraider BD25)\BDMV\STREAM\00000.m2ts
Format                         : BDAV
Format/Info                    : Blu-ray Video
File size                      : 18.5 GiB
Duration                       : 2 h 30 min
Overall bit rate mode          : Variable
Overall bit rate               : 17.7 Mb/s
Maximum Overall bit rate       : 37.8 Mb/s
 
Video
ID                             : 4113 (0x1011)
Menu ID                        : 1 (0x1)
Format                         : MPEG Video
Format version                 : Version 2
Format profile                 : Main@High
Format settings, BVOP          : Yes
Format settings, Matrix        : Custom
Format settings, GOP           : Variable
Format settings, picture struc : Frame
Codec ID                       : 2
Duration                       : 2 h 30 min
Bit rate mode                  : Variable
Bit rate                       : 15.4 Mb/s
Maximum bit rate               : 35.0 Mb/s
Width                          : 1 920 pixels
Height                         : 1 080 pixels
Display aspect ratio           : 16:9
Frame rate                     : 29.970 (30000/1001) FPS
Standard                       : Component
Color space                    : YUV
Chroma subsampling             : 4:2:0
Bit depth                      : 8 bits
Scan type                      : Interlaced
Scan order                     : Top Field First
Compression mode               : Lossy
Bits/(Pixel*Frame)             : 0.248
Time code of first frame       : 00:00:00:00
Time code source               : Group of pictures header
Stream size                    : 16.2 GiB (87%)
Color primaries                : BT.709
Transfer characteristics       : BT.709
Matrix coefficients            : BT.709
 
Audio
ID                             : 4352 (0x1100)
Menu ID                        : 1 (0x1)
Format                         : PCM
Format settings, Endianness    : Big
Format settings, Sign          : Signed
Muxing mode                    : Blu-ray
Codec ID                       : 128
Duration                       : 2 h 30 min
Bit rate mode                  : Constant
Bit rate                       : 1 536 kb/s
Channel(s)                     : 2 channels
Channel positions              : Front: L R
Sampling rate                  : 48.0 kHz
Bit depth                      : 16 bits
Stream size                    : 1.61 GiB (9%)
 
Menu and screenshots here :
 
Thanks in advance, have a great day,
 
Arnaud / Pagarn
 


#2

Posted 30 April 2020 - 02:32 PM

zarko
  • Cover Artists
  • 310 posts
  • Favorite Album:They all kick ass!

Done:

http://www.metcovera...e.php?pid=23065



#3

Posted 30 April 2020 - 05:04 PM

Nono666
  • Members
  • 84 posts
  • Favorite Album:Ride the Lightning

Thanks a lot Zarko !



#4

Posted 30 April 2020 - 06:37 PM

Heavy62
  • Members
  • 8 posts
  • Favorite Album:Ride the Lightning

Merci beaucoup Yannis, top comme toujours, love them ! ;)






0 user(s) are reading this topic

0 members, 0 guests, 0 anonymous users